Results 1 to 1 of 1
  1. #1
    dR Rockers www.desirulez.net
    Join Date
    Aug 2011
    Posts
    5,859

    Cool Heroine (2012) - BDRip - XviD - AC3 - DUS

    Follow us on Social Media













    Code:
    Source : BD50 @ DRs . Thank you for the speeds :D
    
    General
    Complete name                            : H:\Downloads\Heroine (2012) BDRip - XviD - AC3 - (DUS).avi
    Format                                   : AVI
    Format/Info                              : Audio Video Interleave
    Format profile                           : OpenDML
    File size                                : 2.02 GiB
    Duration                                 : 2h 30mn
    Overall bit rate                         : 1 925 Kbps
    Writing library                          : VirtualDub build 32842/release
    
    Video
    ID                                       : 0
    Format                                   : MPEG-4 Visual
    Format profile                           : Advanced [email protected]
    Format settings, BVOP                    : 2
    Format settings, QPel                    : No
    Format settings, GMC                     : No warppoints
    Format settings, Matrix                  : Default (H.263)
    Codec ID                                 : XVID
    Codec ID/Hint                            : XviD
    Duration                                 : 2h 30mn
    Bit rate                                 : 1 465 Kbps
    Width                                    : 720 pixels
    Height                                   : 320 pixels
    Display aspect ratio                     : 2.25:1
    Frame rate                               : 24.000 fps
    Color space                              : YUV
    Chroma subsampling                       : 4:2:0
    Bit depth                                : 8 bits
    Scan type                                : Progressive
    Compression mode                         : Lossy
    Bits/(Pixel*Frame)                       : 0.265
    Stream size                              : 1.54 GiB (76%)
    Writing library                          : XviD 1.2.1 (UTC 2008-12-04)
    
    Audio
    ID                                       : 1
    Format                                   : AC-3
    Format/Info                              : Audio Coding 3
    Mode extension                           : CM (complete main)
    Format settings, Endianness              : Big
    Codec ID                                 : 2000
    Duration                                 : 2h 30mn
    Bit rate mode                            : Constant
    Bit rate                                 : 448 Kbps
    Channel(s)                               : 6 channels
    Channel positions                        : Front: L C R, Side: L R, LFE
    Sampling rate                            : 48.0 KHz
    Bit depth                                : 16 bits
    Compression mode                         : Lossy
    Stream size                              : 482 MiB (23%)
    Alignment                                : Split accross interleaves
    Interleave, duration                     : 42 ms (1.00 video frame)
    Interleave, preload duration             : 500 ms

    ** Screens **





    SINGLE DIRECT FAST LINKS


    Code:
    http://extabit.com/file/2duc552ia71i2/Heroine.2012.BDRip.XviD.AC3.DUS.avi
    Code:
    http://uploaded.net/file/pvq141g3/Heroine.2012.BDRip.XviD.AC3.DUS.avi

 

 

Posting Permissions

  • You may not post new threads
  • You may not post replies
  • You may not post attachments
  • You may not edit your posts
  •