Results 1 to 1 of 1
  1. #1
    dR Rockers www.desirulez.net
    Join Date
    Aug 2011
    Posts
    5,859

    Cool Heroine (2012) - 4.37GB - BluRay - 720p Rip - x264 - AC3 - DUS

    Follow us on Social Media














    Heroine (2012) Blu - Ray - 720p Rip - x264 - AC3 - (DUS)

    Code:
    Source : BD50 @ DRs . Thanks for the speeds :D 
    
    General
    Unique ID                                : 226127205253710866804679576426040194020 (0xAA1E83FD4DFCC5CA80562CA68D2AF3E4)
    Complete name                            : H:\Downloads\Heroine (2012) Blu-Ray - 720p - x264 - AC3 - (DUS)\Heroine (2012) - Blu-Ray - 720p - x264 - AC3 - (DUS).mkv
    Format                                   : Matroska
    Format version                           : Version 2
    File size                                : 4.37 GiB
    Duration                                 : 2h 30mn
    Overall bit rate                         : 4 160 Kbps
    Encoded date                             : UTC 2013-01-18 12:12:04
    Writing application                      : mkvmerge v4.9.1 ('Ich will') built on Jul 11 2011 23:53:15
    Writing library                          : libebml v1.2.1 + libmatroska v1.1.1
    
    Video
    ID                                       : 1
    Format                                   : AVC
    Format/Info                              : Advanced Video Codec
    Format profile                           : [email protected]
    Format settings, CABAC                   : Yes
    Format settings, ReFrames                : 4 frames
    Codec ID                                 : V_MPEG4/ISO/AVC
    Duration                                 : 2h 30mn
    Bit rate                                 : 3 524 Kbps
    Width                                    : 1 280 pixels
    Height                                   : 576 pixels
    Display aspect ratio                     : 2.222
    Frame rate mode                          : Constant
    Frame rate                               : 24.000 fps
    Color space                              : YUV
    Chroma subsampling                       : 4:2:0
    Bit depth                                : 8 bits
    Scan type                                : Progressive
    Bits/(Pixel*Frame)                       : 0.199
    Stream size                              : 3.61 GiB (83%)
    Writing library                          : x264 core 116 r2074 2641b9e
    Encoding settings                        : cabac=1 / ref=3 / deblock=1:0:0 / analyse=0x3:0x111 / me=hex / subme=7 / psy=1 / psy_rd=1.00:0.00 / mixed_ref=1 / me_range=16 / chroma_me=1 / trellis=1 / 8x8dct=1 / cqm=0 / deadzone=21,11 / fast_pskip=1 / chroma_qp_offset=-2 / threads=6 / sliced_threads=0 / nr=0 / decimate=1 / interlaced=0 / bluray_compat=0 / constrained_intra=0 / bframes=3 / b_pyramid=2 / b_adapt=1 / b_bias=0 / direct=1 / weightb=1 / open_gop=0 / weightp=2 / keyint=250 / keyint_min=24 / scenecut=40 / intra_refresh=0 / rc_lookahead=40 / rc=2pass / mbtree=1 / bitrate=3524 / ratetol=1.0 / qcomp=0.60 / qpmin=0 / qpmax=69 / qpstep=4 / cplxblur=20.0 / qblur=0.5 / ip_ratio=1.40 / aq=1:1.00
    Default                                  : Yes
    Forced                                   : No
    
    Audio
    ID                                       : 2
    Format                                   : AC-3
    Format/Info                              : Audio Coding 3
    Mode extension                           : CM (complete main)
    Format settings, Endianness              : Big
    Codec ID                                 : A_AC3
    Duration                                 : 2h 30mn
    Bit rate mode                            : Constant
    Bit rate                                 : 640 Kbps
    Channel(s)                               : 6 channels
    Channel positions                        : Front: L C R, Side: L R, LFE
    Sampling rate                            : 48.0 KHz
    Bit depth                                : 16 bits
    Compression mode                         : Lossy
    Stream size                              : 688 MiB (15%)
    Default                                  : Yes
    Forced                                   : No

    ** Screens **





    SINGLE DIRECT FAST LINKS

    Code:
    http://extabit.com/file/2duc55cd5q0db/Heroine.2012.Blu-Ray.720p.x264.AC3.DUS.mkv
    Code:
    http://uploaded.net/file/k4feml8y/Heroine.2012.Blu-Ray.720p.x264.AC3.DUS.mkv

    1GB LINKS



    Code:
    http://extabit.com/file/2duc55cd5p7z3/Heroine.2012.Blu-Ray.720p.x264.AC3.DUS.mkv.001
    http://extabit.com/file/2duc55cd6cb5b/Heroine.2012.Blu-Ray.720p.x264.AC3.DUS.mkv.002
    http://extabit.com/file/2duc55cd6ce9b/Heroine.2012.Blu-Ray.720p.x264.AC3.DUS.mkv.003
    http://extabit.com/file/2duc55cd6cef3/Heroine.2012.Blu-Ray.720p.x264.AC3.DUS.mkv.004
    http://extabit.com/file/2duc55cd6xqe7/Heroine.2012.Blu-Ray.720p.x264.AC3.DUS.mkv.005

    Code:
    http://uploaded.net/file/j5kyti2n/Heroine.2012.Blu-Ray.720p.x264.AC3.DUS.mkv.001
    http://uploaded.net/file/5q5e674v/Heroine.2012.Blu-Ray.720p.x264.AC3.DUS.mkv.002
    http://uploaded.net/file/d05np7yd/Heroine.2012.Blu-Ray.720p.x264.AC3.DUS.mkv.003
    http://uploaded.net/file/6ln2qfi0/Heroine.2012.Blu-Ray.720p.x264.AC3.DUS.mkv.004
    http://uploaded.net/file/nxtdnxhd/Heroine.2012.Blu-Ray.720p.x264.AC3.DUS.mkv.005

 

 

Posting Permissions

  • You may not post new threads
  • You may not post replies
  • You may not post attachments
  • You may not edit your posts
  •