Results 1 to 1 of 1
  1. #1
    dR Rockers www.desirulez.net
    Join Date
    Aug 2011
    Posts
    5,859

    Cool Luv Shuv Tey Chicken Khurana (2012) 480p - 1GB - DVDRip - XVID - AC3 - DD 5.1 [email protected]=

    Follow us on Social Media











    Code:
    Format                                   : Matroska
    Format version                           : Version 2
    File size                                : 1.01 GiB
    Duration                                 : 2h 16mn
    Overall bit rate                         : 1 055 Kbps
    Movie name                               : Luv Shuv Tey Chicken Khurana [2012] 480p DVD Rip XVID AC3 DD 5.1 [email protected]= [ExDT]
    
    
    Video
    ID                                       : 1
    Format                                   : MPEG-4 Visual
    Format profile                           : Advanced [email protected]
    Format settings, BVOP                    : Yes
    Format settings, QPel                    : No
    Format settings, GMC                     : No warppoints
    Format settings, Matrix                  : Default (H.263)
    Codec ID                                 : XVID
    Codec ID/Hint                            : XviD
    Duration                                 : 2h 16mn
    Bit rate                                 : 586 Kbps
    Width                                    : 672 pixels
    Height                                   : 272 pixels
    Display aspect ratio                     : 2.471
    Frame rate                               : 23.976 fps
    Color space                              : YUV
    Chroma subsampling                       : 4:2:0
    Bit depth                                : 8 bits
    Scan type                                : Progressive
    Compression mode                         : Lossy
    Bits/(Pixel*Frame)                       : 0.134
    Stream size                              : 572 MiB (56%)
    Writing library                          : XviD 1.2.1 (UTC 2008-12-04)
    Default                                  : Yes
    Forced                                   : No
    
    Audio
    ID                                       : 2
    Format                                   : AC-3
    Format/Info                              : Audio Coding 3
    Mode extension                           : CM (complete main)
    Format settings, Endianness              : Big
    Muxing mode                              : Header stripping
    Codec ID                                 : A_AC3
    Duration                                 : 2h 16mn
    Bit rate mode                            : Constant
    Bit rate                                 : 448 Kbps
    Channel(s)                               : 6 channels
    Channel positions                        : Front: L C R, Side: L R, LFE
    Sampling rate                            : 48.0 KHz
    Bit depth                                : 16 bits
    Compression mode                         : Lossy
    Stream size                              : 437 MiB (42%)
    Default                                  : Yes
    Forced                                   : No
    **Screens**






    SINGLE DIRECT FAST LINKS

    Code:
    http://extabit.com/file/2duc4vf969cdp/Luv.Shuv.Tey.Chicken.Khurana.[2012].480p.DVD.Rip.XVID.AC3.DD 5.1.[ExDT].mkv
    Code:
    http://lumfile.com/p1ngsm5hd8ng/Luv.Shuv.Tey.Chicken.Khurana.[2012].480p.DVD.Rip.XVID.AC3.DD_5.1.[ExDT].mkv.html

 

 

Posting Permissions

  • You may not post new threads
  • You may not post replies
  • You may not post attachments
  • You may not edit your posts
  •