Results 1 to 1 of 1
  1. #1
    dR Rockers www.desirulez.net
    Join Date
    Aug 2011
    Posts
    5,859

    Cool Ajab Gazabb Love (2012) DVD SCREENER Xvid AC3 1CDRip [EXD ]

    Follow us on Social Media











    Code:
    Format : AVI
    Format/Info : Audio Video Interleave
    File size : 686 MiB
    Duration : 1h 53mn
    Overall bit rate : 841 Kbps
    Writing application : VirtualDubMod 1.5.4.1 (build 2178/release)
    Writing library : VirtualDubMod build 2178/release
    
    Video
    ID : 0
    Format : MPEG-4 Visual
    Format profile : Advanced [email protected]
    Format settings, BVOP : Yes
    Format settings, QPel : No
    Format settings, GMC : No warppoints
    Format settings, Matrix : Default (H.263)
    Muxing mode : Packed bitstream
    Codec ID : XVID
    Codec ID/Hint : XviD
    Duration : 1h 53mn
    Bit rate : 770 Kbps
    Width : 640 pixels
    Height : 288 pixels
    Display aspect ratio : 2.222
    Frame rate : 19.181 fps
    Original frame rate : 19.185 fps
    Color space : YUV
    Chroma subsampling : 4:2:0
    Bit depth : 8 bits
    Compression mode : Lossy
    Bits/(Pixel*Frame) : 0.218
    Stream size : 627 MiB (91%)
    Writing library : XviD 64
    
    Audio
    ID : 1
    Format : AC-3
    Format/Info : Audio Coding 3
    Mode extension : CM (complete main)
    Codec ID : 2000
    Duration : 1h 53mn
    Bit rate mode : Constant
    Bit rate : 64.0 Kbps
    Channel(s) : 2 channels
    Channel positions : Front: L R
    Sampling rate : 32.0 KHz
    Bit depth : 16 bits
    Compression mode : Lossy
    Stream size : 52.2 MiB (8%)
    Alignment : Split accross interleaves
    Interleave, duration : 52 ms (1.00 video frame)
    Interleave, preload duration : 500 ms















    SINGLE DIRECT FAST LINKS


    Code:
    http://extabit.com/file/2duc4vf969cd9/Ajab.Gazabb.Love.(2012).DVD.SCREENER.Xvid.AC3.1CDRip.[EXD.EXCLUSIVE][John Rip].avi
    Code:
    http://lumfile.com/d35qyh1yala3/Ajab.Gazabb.Love.(2012).DVD.SCREENER.Xvid.AC3.1CDRip.[EXD.EXCLUSIVE][John_Rip].avi.html

 

 

Posting Permissions

  • You may not post new threads
  • You may not post replies
  • You may not post attachments
  • You may not edit your posts
  •