Results 1 to 1 of 1
  1. #1
    dR Rockers www.desirulez.net
    Join Date
    Aug 2011
    Posts
    5,859

    Cool Jab Tak Hai Jaan (2012) Blu-Ray - 720p - x264 - SUBS - (DUS)

    Follow us on Social Media










    Code:
    Duration                                 : 2h 56mn
    Bit rate                                 : 3 298 Kbps
    Width                                    : 1 280 pixels
    Height                                   : 544 pixels
    Display aspect ratio                     : 2.35:1
    Frame rate mode                          : Constant
    Frame rate                               : 24.000 fps
    Color space                              : YUV
    Chroma subsampling                       : 4:2:0
    Bit depth                                : 8 bits
    Scan type                                : Progressive
    Bits/(Pixel*Frame)                       : 0.197
    Stream size                              : 3.97 GiB (91%)
    Writing library                          : x264 core 116 r2074 2641b9e
    Encoding settings                        : cabac=1 / ref=3 / deblock=1:0:0 / analyse=0x3:0x111 / me=hex / subme=7 / psy=1 / psy_rd=1.00:0.00 / mixed_ref=1 / me_range=16 / chroma_me=1 / trellis=1 / 8x8dct=1 / cqm=0 / deadzone=21,11 / fast_pskip=1 / chroma_qp_offset=-2 / threads=6 / sliced_threads=0 / nr=0 / decimate=1 / interlaced=0 / bluray_compat=0 / constrained_intra=0 / bframes=3 / b_pyramid=2 / b_adapt=1 / b_bias=0 / direct=1 / weightb=1 / open_gop=0 / weightp=2 / keyint=250 / keyint_min=24 / scenecut=40 / intra_refresh=0 / rc_lookahead=40 / rc=2pass / mbtree=1 / bitrate=3298 / ratetol=1.0 / qcomp=0.60 / qpmin=0 / qpmax=69 / qpstep=4 / cplxblur=20.0 / qblur=0.5 / ip_ratio=1.40 / aq=1:1.00
    Default                                  : Yes
    Forced                                   : No
    
    Audio
    ID                                       : 2
    Format                                   : AC-3
    Format/Info                              : Audio Coding 3
    Mode extension                           : CM (complete main)
    Format settings, Endianness              : Big
    Codec ID                                 : A_AC3
    Duration                                 : 2h 56mn
    Bit rate mode                            : Constant
    Bit rate                                 : 256 Kbps
    Channel(s)                               : 6 channels
    Channel positions                        : Front: L C R, Side: L R, LFE
    Sampling rate                            : 48.0 KHz
    Bit depth                                : 16 bits
    Compression mode                         : Lossy
    Stream size                              : 322 MiB (7%)
    Default                                  : Yes
    Forced                                   : No







    SINGLE DIRECT FAST LINKS
    Code:
    http://extabit.com/file/2duc4uso7xide/Jab.Tak.Hai.Jaan.(2012).Blu-Ray.720p.x264.DUS.mkv
    Code:
    http://lumfile.com/p0boz38ww45g/Jab.Tak.Hai.Jaan.(2012).Blu-Ray.720p.x264.DUS.mkv.html

    1GB LINKS

    Code:
    http://extabit.com/file/2duc4uso96742/Jab.Tak.Hai.Jaan.(2012).Blu-Ray.720p.x264.DUS.mkv.001
    http://extabit.com/file/2duc4uso963yq/Jab.Tak.Hai.Jaan.(2012).Blu-Ray.720p.x264.DUS.mkv.002
    http://extabit.com/file/2duc4uso960r6/Jab.Tak.Hai.Jaan.(2012).Blu-Ray.720p.x264.DUS.mkv.003
    http://extabit.com/file/2duc4uso96df6/Jab.Tak.Hai.Jaan.(2012).Blu-Ray.720p.x264.DUS.mkv.004
    http://extabit.com/file/2duc4uso958eq/Jab.Tak.Hai.Jaan.(2012).Blu-Ray.720p.x264.DUS.mkv.005
    http://extabit.com/file/2duc4uso95ujm/Jab.Tak.Hai.Jaan.(2012).Blu-Ray.720p.x264.DUS.sub
    http://extabit.com/file/2duc4uso95r9u/Jab.Tak.Hai.Jaan.(2012).Blu-Ray.720p.x264.DUS.idx
    Code:
    http://lumfile.com/v89ushb5273b/Jab.Tak.Hai.Jaan.(2012).Blu-Ray.720p.x264.DUS.mkv.001.html
    http://lumfile.com/8pirlidolvrn/Jab.Tak.Hai.Jaan.(2012).Blu-Ray.720p.x264.DUS.mkv.002.html
    http://lumfile.com/l8zbtxzt0nv2/Jab.Tak.Hai.Jaan.(2012).Blu-Ray.720p.x264.DUS.mkv.003.html
    http://lumfile.com/qeqzrutj8fkr/Jab.Tak.Hai.Jaan.(2012).Blu-Ray.720p.x264.DUS.mkv.004.html
    http://lumfile.com/jef2jncj5gfe/Jab.Tak.Hai.Jaan.(2012).Blu-Ray.720p.x264.DUS.mkv.005.html
    http://lumfile.com/21kl7q3tqvqz/Jab.Tak.Hai.Jaan.(2012).Blu-Ray.720p.x264.DUS.sub.html
    http://lumfile.com/xuev6769dzw8/Jab.Tak.Hai.Jaan.(2012).Blu-Ray.720p.x264.DUS.idx.html

 

 

Posting Permissions

  • You may not post new threads
  • You may not post replies
  • You may not post attachments
  • You may not edit your posts
  •