Results 1 to 1 of 1
  1. #1
    dR Contributor www.desirulez.net
    Join Date
    Mar 2010
    Posts
    2,245

    Default Khiladi 786 (2012) (Hindi) 1CDRip - DVDRip - XviD - Ac.5.1- [ExD]

    Follow us on Social Media





    Khiladi 786 (2012) (Hindi) 1CDRip - DVDRip - XviD - Ac.5.1- [ExD]










    Format : AVI
    Format/Info : Audio Video Interleave
    File size : 695 MiB
    Duration : 2h 19mn
    Overall bit rate : 695 Kbps
    Writing library : VirtualDub build 24463/release



    Video

    odec ID : XVID
    Codec ID/Hint : XviD
    Duration : 2h 19mn
    Bit rate : 562 Kbps
    Width : 688 pixels
    Height : 288 pixels
    Display aspect ratio : 2.40:1
    Frame rate : 23.976 fps
    Color space : YUV
    Chroma subsampling : 4:2:0
    Bit depth : 8 bits
    Scan type : Progressive
    Compression mode : Lossy
    Bits/(Pixel*Frame) : 0.118
    Stream size : 562 MiB (81%)



    Audio

    Codec ID : 2000
    Duration : 2h 19mn
    Bit rate mode : Constant
    Bit rate : 128 Kbps
    Channel(s) : 6 channels
    Channel positions : Front: L C R, Side: L R, LFE
    Sampling rate : 48.0 KHz
    Bit depth : 16 bits
    Compression mode : Lossy
    Stream size : 128 MiB (18%)






    Download Links



    Code:
    http://extabit.com/file/2fggmmgk4whvx/Khiladi.786.(2012).DVDRip.XviD.Ac.5.1.1CDRip.[ExD.ExclusivE].avi


    Code:
    http://lumfile.com/xuc97hkj0fq0/Khiladi.786.(2012).DVDRip.XviD.Ac.5.1.1CDRip.[ExD.ExclusivE].avi.html



    Code:
    http://ul.to/12imf803/Khiladi.786.(2012).DVDRip.XviD.Ac.5.1.1CDRip.[ExD.ExclusivE].avi



    Code:
    http://ryushare.com/16d40c9823ba/Khiladi.786.(2012).DVDRip.XviD.Ac.5.1.1CDRip.[ExD.ExclusivE].avi




 

 

Posting Permissions

  • You may not post new threads
  • You may not post replies
  • You may not post attachments
  • You may not edit your posts
  •