Results 1 to 1 of 1
  1. #1
    Hot Member www.desirulez.net
    Join Date
    Feb 2011
    Location
    Bulletproof IP
    Posts
    1,189

    Default Khiladi 786 (2012) - DVDRip - XviD - AC3 5.1 - 1CDRip - ESubs - [ExD ExclusivE]

    Follow us on Social Media





    Khiladi 786
    DVDRip - XviD - AC3 5.1 - 1CDRip - ESubs - [ExD ExclusivE]




    Rip Information
    Code:
    Format                                   : AVI
    Format/Info                              : Audio Video Interleave
    File size                                : 695 MiB
    Duration                                 : 2h 19mn
    Overall bit rate                         : 695 Kbps
    Writing library                          : VirtualDub build 24463/release
    Video
    Code:
    Codec ID                                 : XVID
    Codec ID/Hint                            : XviD
    Duration                                 : 2h 19mn
    Bit rate                                 : 562 Kbps
    Width                                    : 688 pixels
    Height                                   : 288 pixels
    Display aspect ratio                     : 2.40:1
    Frame rate                               : 23.976 fps
    Color space                              : YUV
    Chroma subsampling                       : 4:2:0
    Bit depth                                : 8 bits
    Scan type                                : Progressive
    Compression mode                         : Lossy
    Bits/(Pixel*Frame)                       : 0.118
    Stream size                              : 562 MiB (81%)
    Audio
    Code:
    Codec ID                                 : 2000
    Duration                                 : 2h 19mn
    Bit rate mode                            : Constant
    Bit rate                                 : 128 Kbps
    Channel(s)                               : 6 channels
    Channel positions                        : Front: L C R, Side: L R, LFE
    Sampling rate                            : 48.0 KHz
    Bit depth                                : 16 bits
    Compression mode                         : Lossy
    Stream size                              : 128 MiB (18%)



















    All Credits Goes To [email protected] @ Team ExD (Thanks)

    Size: 694.8 MB

    Code:
    http://extabit.com/file/279u1flz3m28m/K786-DVDRip-XviD-AC3-1CDRip-ExD.avi
    or
    http://turbobit.net/tm2g1w2loyyf/K786-DVDRip-XviD-AC3-1CDRip-ExD.avi.html
    
    Subtitles:
    http://extabit.com/file/279u1flz3mbli/K786-DVDRip-XviD-AC3-1CDRip-ExD.srt

 

 

Posting Permissions

  • You may not post new threads
  • You may not post replies
  • You may not post attachments
  • You may not edit your posts
  •