Results 1 to 1 of 1
  1. #1
    Hot Member www.desirulez.net
    Join Date
    Sep 2009
    Posts
    1,215

    Thumbs up 'Matru Ki Bijlee Ka Mandola'-2013 (Audio Cleaned) - SCam Rip - MPEG-PS

    Follow us on Social Media










    Code:
    General
    Rip - MPEG-PS.mpg
    Format : MPEG-PS
    File size : 678 MiB
    Duration : 2h 12mn
    Overall bit rate mode : Variable
    Overall bit rate : 717 Kbps
    
    Video #224
    ID : 224 (0xE0)
    Format : MPEG Video
    Format version : Version 1
    Format settings, BVOP : Yes
    Format settings, Matrix : Custom
    Format settings, GOP : Variable
    Duration : 2h 12mn
    Bit rate mode : Variable
    Bit rate : 643 Kbps
    Width : 352 pixels
    Height : 288 pixels
    Display aspect ratio : 4:3
    Frame rate : 25.000 fps
    Standard : PAL
    Color space : YUV
    Bit depth : 8 bits
    Scan type : Progressive
    Compression mode : Lossy
    Bits/(Pixel*Frame) : 0.254
    Stream size : 604 MiB (89%)
    Code:
    Audio #192
    ID : 192 (0xC0)
    Format : MPEG Audio
    Format version : Version 1
    Format profile : Layer 2
    Duration : 2h 12mn
    Bit rate mode : Constant
    Bit rate : 64.0 Kbps
    Channel(s) : 2 channels
    Sampling rate : 48.0 KHz
    Compression mode : Lossy
    Stream size : 60.5 MiB (9%)


    Code:
    http://rapidgator.net/file/69949802/'Matru_Ki_Bijlee_Ka_Mandola'-2013_(Audio_Cleaned)_-_SCam_Rip_-_MPEG-PS.mpg.html
    
    http://ul.to/i8kr2b5e
    
    http://filegag.com/3l9go02ni4xx







 

 

Posting Permissions

  • You may not post new threads
  • You may not post replies
  • You may not post attachments
  • You may not edit your posts
  •