Results 1 to 2 of 2
  1. #1
    Hot Member www.desirulez.net
    Join Date
    Jul 2012
    Posts
    643

    Default Khiladi 786 (2012) - 1CDRip - DVDRip - XviD - Ac.5.1- [ExD ExclusivE]

    Follow us on Social Media





    Khiladi 786 (2012) - 1CDRip - DVDRip - XviD - Ac.5.1- [ExD ExclusivE]





    Code:
    Rip Information
    
    Format                                   : AVI
    Format/Info                              : Audio Video Interleave
    File size                                : 695 MiB
    Duration                                 : 2h 19mn
    Overall bit rate                         : 695 Kbps
    Writing library                          : VirtualDub build 24463/release
    
    
    
    Video
    
    odec ID                                 : XVID
    Codec ID/Hint                            : XviD
    Duration                                 : 2h 19mn
    Bit rate                                 : 562 Kbps
    Width                                    : 688 pixels
    Height                                   : 288 pixels
    Display aspect ratio                     : 2.40:1
    Frame rate                               : 23.976 fps
    Color space                              : YUV
    Chroma subsampling                       : 4:2:0
    Bit depth                                : 8 bits
    Scan type                                : Progressive
    Compression mode                         : Lossy
    Bits/(Pixel*Frame)                       : 0.118
    Stream size                              : 562 MiB (81%)
    
    
    
    Audio
    
    Codec ID                                 : 2000
    Duration                                 : 2h 19mn
    Bit rate mode                            : Constant
    Bit rate                                 : 128 Kbps
    Channel(s)                               : 6 channels
    Channel positions                        : Front: L C R, Side: L R, LFE
    Sampling rate                            : 48.0 KHz
    Bit depth                                : 16 bits
    Compression mode                         : Lossy
    Stream size                              : 128 MiB (18%)






    If U Like My Post Willing To Buy Premium For High Speed Resumable downloads Pls BuY Premium From This Links
    Code:
    http://lumfile.com/k7mv2dg3k2t2/Khiladi.786.(2012).DVDRip.XviD.Ac.5.1.1CDRip._5BExD.ExclusivE_5D.avi.html
    
    http://uploaded.net/file/jqyrj97x/Khiladi.786.%25282012%2529.DVDRip.XviD.Ac.5.1.1CDRip.%255BExD.ExclusivE%255D.avi
    
    http://ryushare.com/567e31b97ac6/Khiladi.786.(2012).DVDRip.XviD.Ac.5.1.1CDRip.[ExD.ExclusivE].avi

  2. #2
    New Arrivals
    Join Date
    Dec 2012
    Posts
    1

    Default

    awesome rip. thnx

 

 

Posting Permissions

  • You may not post new threads
  • You may not post replies
  • You may not post attachments
  • You may not edit your posts
  •