Results 1 to 1 of 1
  1. #1
    dR Rockers www.desirulez.net
    Join Date
    Aug 2011
    Posts
    5,859

    Cool Khiladi 786 (2012) - 720p - DVDRip - x264 - 6Ch - [EXD Exclusive]

    Follow us on Social Media










    Code:
    Rip Information
    
    Format                                   : Matroska
    Format version                           : Version 2
    File size                                : 1.30 GiB
    Duration                                 : 2h 19mn
    Overall bit rate                         : 1 329 Kbps
    Movie name                               : Khiladi 786 (2012)[email protected] [EXD Exclusive]
    
    
    
    Video
    
    Codec ID                                 : V_MPEG4/ISO/AVC
    Duration                                 : 2h 19mn
    Bit rate                                 : 944 Kbps
    Width                                    : 1 280 pixels
    Height                                   : 544 pixels
    Display aspect ratio                     : 2.35:1
    Frame rate                               : 23.976 fps
    Color space                              : YUV
    Chroma subsampling                       : 4:2:0
    Bit depth                                : 8 bits
    Scan type                                : Progressive
    Bits/(Pixel*Frame)                       : 0.057
    Stream size                              : 918 MiB (69%)
    Title                                    : [email protected]
    Writing library                          : x264 core 129 r2230 1cffe9f
    
    
    
    Audio
    
    Codec ID                                 : A_AC3
    Duration                                 : 2h 19mn
    Bit rate mode                            : Constant
    Bit rate                                 : 384 Kbps
    Channel(s)                               : 6 channels
    Channel positions                        : Front: L C R, Side: L R, LFE
    Sampling rate                            : 48.0 KHz
    Bit depth                                : 16 bits
    Compression mode                         : Lossy
    Delay relative to video                  : 450ms
    Stream size                              : 384 MiB (29%)
    Title                                    : [email protected]
    Language                                 : Hindi





    SINGLE DIRECT FAST LINKS


    Code:
    http://extabit.com/file/2duc4usb1gvsy/Khiladi.786.(2012).720p.DVDRip.x264.6Ch-By.[EXD.Exclusive].mkv
    http://extabit.com/file/2duc4usb2p4tu/Khiladi.786.(2012).720p.DVDRip.x264.6Ch-By.[EXD.Exclusive].srt
    Code:
    http://lumfile.com/lj0vtc5smyc1/Khiladi.786.(2012).720p.DVDRip.x264.6Ch-By.[EXD.Exclusive].mkv.html
    http://lumfile.com/221xnlixzwyv/Khiladi.786.(2012).720p.DVDRip.x264.6Ch-By.[EXD.Exclusive].srt.html

 

 

Posting Permissions

  • You may not post new threads
  • You may not post replies
  • You may not post attachments
  • You may not edit your posts
  •