Results 1 to 1 of 1
  1. #1
    dR Contributor www.desirulez.net
    Join Date
    Jul 2012
    Posts
    795

    Cool iMPACT.Wrestling.2013.01.10.HDTV.x264-WD

    Follow us on Social Media





    TNA iMPACT Wrestling 2013.01.10


    HDTV.x264-WD






    Code:
    iMPACT.Wrestling.2013.01.10.HDTV.x264-WD 
     
    Capper: Edge2013RatedR 
    Format                                   : MPEG-4 
    Format profile                           : Base Media 
    Codec ID                                 : isom 
    File size                                : 831 MiB 
    Duration                                 : 1h 23mn 
    Overall bit rate mode                    : Variable 
    Overall bit rate                         : 1 384 Kbps 
    Encoded date                             : UTC 2013-01-11 05:41:25 
    Tagged date                              : UTC 2013-01-11 05:41:25 
     
    Video 
    ID                                       : 1 
    Format                                   : AVC 
    Format/Info                              : Advanced Video Codec 
    Format profile                           : [email protected] 
    Format settings, CABAC                   : Yes 
    Format settings, ReFrames                : 5 frames 
    Codec ID                                 : avc1 
    Codec ID/Info                            : Advanced Video Coding 
    Duration                                 : 1h 23mn 
    Bit rate                                 : 1 253 Kbps 
    Maximum bit rate                         : 4 311 Kbps 
    Width                                    : 720 pixels 
    Height                                   : 404 pixels 
    Display aspect ratio                     : 16:9 
    Frame rate mode                          : Constant 
    Frame rate                               : 29.970 fps 
    Color space                              : YUV 
    Chroma subsampling                       : 4:2:0 
    Bit depth                                : 8 bits 
    Scan type                                : Progressive 
    Bits/(Pixel*Frame)                       : 0.144 
    Stream size                              : 752 MiB (90%) 
    Title                                    : Video 
    Writing library                          : x264 core 129 r2230 1cffe9f 
    Encoding settings                        : cabac=1 / ref=5 /  deblock=1:0:0 / analyse=0x3:0x113 / me=umh / subme=8 / psy=1 /  psy_rd=1.00:0.00 / mixed_ref=1 / me_range=16 / chroma_me=1 / trellis=1 /  8x8dct=1 / cqm=0 / deadzone=21,11 / fast_pskip=1 / chroma_qp_offset=-2 /  threads=9 / lookahead_threads=1 / sliced_threads=0 / nr=0 / decimate=1 /  interlaced=0 / bluray_compat=0 / constrained_intra=0 / bframes=3 /  b_pyramid=2 / b_adapt=2 / b_bias=0 / direct=3 / weightb=1 / open_gop=0 /  weightp=2 / keyint=250 / keyint_min=25 / scenecut=40 / intra_refresh=0 /  rc_lookahead=50 / rc=crf / mbtree=1 / crf=23.0 / qcomp=0.60 / qpmin=0 /  qpmax=69 / qpstep=4 / ip_ratio=1.40 / aq=1:1.00 
    Encoded date                             : UTC 2013-01-11 05:41:25 
    Tagged date                              : UTC 2013-01-11 05:42:05 
    Matrix coefficients                      : BT.709 
     
    Audio 
    ID                                       : 2 
    Format                                   : AAC 
    Format/Info                              : Advanced Audio Codec 
    Format profile                           : LC 
    Codec ID                                 : 40 
    Duration                                 : 1h 23mn 
    Bit rate mode                            : Variable 
    Bit rate                                 : 127 Kbps 
    Maximum bit rate                         : 149 Kbps 
    Channel(s)                               : 2 channels 
    Channel positions                        : Front: L R 
    Sampling rate                            : 48.0 KHz 
    Compression mode                         : Lossy 
    Delay relative to video                  : 67ms 
    Stream size                              : 76.2 MiB (9%) 
    Language                                 : English 
    Encoded date                             : UTC 2013-01-11 05:41:55 
    Tagged date                              : UTC 2013-01-11 05:42:05


    One Link

    UL
    Code:
    http://uploaded.net/file/ke42k686/iMPACT.Wrestling.2013.01.10.HDTV.x264.WD.mp4
    TurboBit
    Code:
    http://turbobit.net/dkafbftzz7j2/iMPACT.Wrestling.2013.01.10.HDTV.x264.WD.mp4.html




 

 

Posting Permissions

  • You may not post new threads
  • You may not post replies
  • You may not post attachments
  • You may not edit your posts
  •