Results 1 to 1 of 1
  1. #1
    dR Contributor www.desirulez.net
    Join Date
    Mar 2010
    Posts
    2,245

    Default Jab Tak Hai Jaan (2012) (Hindi) 1/2 BluRay-Rip XviD AC3 - (DUS)

    Follow us on Social Media





    Jab Tak Hai Jaan (2012) (Hindi) 1/2 BluRay-Rip XviD AC3 - (DUS)






    Format : AVI
    Format/Info : Audio Video Interleave
    Format profile : OpenDML
    File size : 2.37 GiB
    Duration : 2h 56mn
    Overall bit rate : 1 928 Kbps
    Writing library : VirtualDub build 32842/release

    Video
    ID : 0
    Format : MPEG-4 Visual
    Format profile : Advanced [email protected]
    Format settings, BVOP : 2
    Format settings, QPel : No
    Format settings, GMC : No warppoints
    Format settings, Matrix : Default (H.263)
    Codec ID : XVID
    Codec ID/Hint : XviD
    Duration : 2h 56mn
    Bit rate : 1 661 Kbps
    Width : 720 pixels
    Height : 304 pixels
    Display aspect ratio : 2.35:1
    Frame rate : 24.000 fps
    Color space : YUV
    Chroma subsampling : 4:2:0
    Bit depth : 8 bits
    Scan type : Progressive
    Compression mode : Lossy
    Bits/(Pixel*Frame) : 0.316
    Stream size : 2.04 GiB (86%)
    Writing library : XviD 1.2.1 (UTC 2008-12-04)

    Audio
    ID : 1
    Format : AC-3
    Format/Info : Audio Coding 3
    Mode extension : CM (complete main)
    Format settings, Endianness : Big
    Codec ID : 2000
    Duration : 2h 56mn
    Bit rate mode : Constant
    Bit rate : 256 Kbps
    Channel(s) : 6 channels
    Channel positions : Front: L C R, Side: L R, LFE
    Sampling rate : 48.0 KHz
    Bit depth : 16 bits
    Compression mode : Lossy
    Stream size : 322 MiB (13%)
    Alignment : Split accross interleaves
    Interleave, duration : 42 ms (1.00 video frame)
    Interleave, preload duration : 500 ms


    Sample

    Code:
    http://www.multiupload.nl/0HB5S52FEO







    Download Single Links

    Code:
    http://extabit.com/file/2duc4uzkz7kl5/Jab Tak Hai Jaan (Blu-Ray) XviD AC3 5.1 - DUS.avi

    Code:
    http://ryushare.com/52dadf25e417/Jab_Tak_Hai_Jaan_(Blu-Ray)_XviD_AC3_5.1_-_DUS.avi

    Code:
    http://ul.to/az8v3bcr/Jab Tak Hai Jaan (Blu-Ray) XviD AC3 5.1 - DUS.avi

    Code:
    http://lumfile.com/mwzawp889au5/Jab_Tak_Hai_Jaan_(Blu-Ray)_XviD_AC3_5.1_-_DUS.avi.html


    Download Parts Link

    Code:
    http://extabit.com/file/2duc4uzkz6cax/Jab Tak Hai Jaan (Blu-Ray) XviD AC3 5.1 - DUS.avi.001
    http://extabit.com/file/2duc4uzkz6cbd/Jab Tak Hai Jaan (Blu-Ray) XviD AC3 5.1 - DUS.avi.002
    http://extabit.com/file/2duc4uzkz6cbt/Jab Tak Hai Jaan (Blu-Ray) XviD AC3 5.1 - DUS.avi.003
    http://extabit.com/file/2duc4uzkz6cc9/Jab Tak Hai Jaan (Blu-Ray) XviD AC3 5.1 - DUS.avi.004
    http://extabit.com/file/2duc4uzkz6c95/Jab Tak Hai Jaan (Blu-Ray) XviD AC3 5.1 - DUS.avi.005


    Code:
    http://ul.to/dsnvgzkg/Jab Tak Hai Jaan (Blu-Ray) XviD AC3 5.1 - DUS.avi.001
    http://ul.to/jch2ssiy/Jab Tak Hai Jaan (Blu-Ray) XviD AC3 5.1 - DUS.avi.002
    http://ul.to/qmeid3k6/Jab Tak Hai Jaan (Blu-Ray) XviD AC3 5.1 - DUS.avi.003
    http://ul.to/ranmap8k/Jab Tak Hai Jaan (Blu-Ray) XviD AC3 5.1 - DUS.avi.004
    http://ul.to/1vj262uc/Jab Tak Hai Jaan (Blu-Ray) XviD AC3 5.1 - DUS.avi.005


    Code:
    http://lumfile.com/7ciidlfc6fh1/Jab_Tak_Hai_Jaan_(Blu-Ray)_XviD_AC3_5.1_-_DUS.avi.001.html
    http://lumfile.com/avh83ohopd4w/Jab_Tak_Hai_Jaan_(Blu-Ray)_XviD_AC3_5.1_-_DUS.avi.002.html
    http://lumfile.com/6sdulbhz2j23/Jab_Tak_Hai_Jaan_(Blu-Ray)_XviD_AC3_5.1_-_DUS.avi.003.html
    http://lumfile.com/5pratw0ax5vk/Jab_Tak_Hai_Jaan_(Blu-Ray)_XviD_AC3_5.1_-_DUS.avi.004.html
    http://lumfile.com/rw5kac786vlj/Jab_Tak_Hai_Jaan_(Blu-Ray)_XviD_AC3_5.1_-_DUS.avi.005.html


    Code:
    http://ryushare.com/55955d14670b/Jab_Tak_Hai_Jaan_(Blu-Ray)_XviD_AC3_5.1_-_DUS.avi.001
    http://ryushare.com/55955d14670c/Jab_Tak_Hai_Jaan_(Blu-Ray)_XviD_AC3_5.1_-_DUS.avi.002
    http://ryushare.com/53c3b3caf041/Jab_Tak_Hai_Jaan_(Blu-Ray)_XviD_AC3_5.1_-_DUS.avi.003
    http://ryushare.com/53c3b3caf043/Jab_Tak_Hai_Jaan_(Blu-Ray)_XviD_AC3_5.1_-_DUS.avi.004
    http://ryushare.com/53c3b3caf042/Jab_Tak_Hai_Jaan_(Blu-Ray)_XviD_AC3_5.1_-_DUS.avi.005



 

 

Posting Permissions

  • You may not post new threads
  • You may not post replies
  • You may not post attachments
  • You may not edit your posts
  •