Results 1 to 1 of 1
  1. #1
    Hot Member www.desirulez.net
    Join Date
    Feb 2011
    Location
    Bulletproof IP
    Posts
    1,189

    Default Table No 21 (2013) 1/5 DVDScr Rip XviD Mp3 780MB - DUS

    Follow us on Social Media





    Table No 21 (2013)
    1/5 DVDScr Rip XviD Mp3 780MB - DUS




    Code:
    General
    Complete name                            : Table No 21 (2013) DVDSCR Rip XviD Mp3 - DUS.avi
    Format                                   : AVI
    Format/Info                              : Audio Video Interleave
    File size                                : 781 MiB
    Duration                                 : 1h 40mn
    Overall bit rate                         : 1 091 Kbps
    
    Video
    ID                                       : 0
    Format                                   : MPEG-4 Visual
    Format profile                           : Advanced [email protected]
    Format settings, BVOP                    : 2
    Format settings, QPel                    : No
    Format settings, GMC                     : No warppoints
    Format settings, Matrix                  : Default (H.263)
    Codec ID                                 : XVID
    Codec ID/Hint                            : XviD
    Duration                                 : 1h 40mn
    Bit rate                                 : 972 Kbps
    Width                                    : 640 pixels
    Height                                   : 288 pixels
    Display aspect ratio                     : 2.222
    Frame rate                               : 29.970 fps
    Color space                              : YUV
    Chroma subsampling                       : 4:2:0
    Bit depth                                : 8 bits
    Scan type                                : Progressive
    Compression mode                         : Lossy
    Bits/(Pixel*Frame)                       : 0.176
    Stream size                              : 695 MiB (89%)
    Writing library                          : XviD 1.2.1 (UTC 2008-12-04)
    
    Audio
    ID                                       : 1
    Format                                   : MPEG Audio
    Format version                           : Version 1
    Format profile                           : Layer 3
    Mode                                     : Joint stereo
    Mode extension                           : MS Stereo
    Codec ID                                 : 55
    Codec ID/Hint                            : MP3
    Duration                                 : 1h 40mn
    Bit rate mode                            : Constant
    Bit rate                                 : 112 Kbps
    Channel(s)                               : 2 channels
    Sampling rate                            : 44.1 KHz
    Compression mode                         : Lossy
    Stream size                              : 80.1 MiB (10%)
    Alignment                                : Aligned on interleaves
    Interleave, duration                     : 133 ms (4.00 video frames)
    Interleave, preload duration             : 208 ms
    Title                                    : VTS_01_1 T80 2_0ch 192Kbps DELAY 0ms_new
    Writing library                          : LAME3.98r
    Encoding settings                        : -m j -V 4 -q 2 -lowpass 15.6 -b 112
    ..::: Screenshots :::..










    All Credits Goes To Team DUS (Thanks)

    Size: 780.67 MB

    Code:
    http://turbobit.net/yyvtmd0l6lq1/T-No21-1-5-DVDScr-Rip-XviD-Mp3-DUS.avi.html
    or
    http://rapidgator.net/file/68760662/T-No21-1-5-DVDScr-Rip-XviD-Mp3-DUS.avi.html

 

 

Posting Permissions

  • You may not post new threads
  • You may not post replies
  • You may not post attachments
  • You may not edit your posts
  •