Results 1 to 1 of 1
  1. #1
    dR Rockers www.desirulez.net
    Join Date
    Aug 2011
    Posts
    5,859

    Cool Student Of The Year (2012) 1080p - DVDRip - x264 - AC3 - 5.1 (DUS)

    Follow us on Social Media














    Code:
    General
    Source                                          : TeamDST - Thanks
    Unique ID                                : 174552888446483023006776054495787002626 (0x8351A9D96BDE225EBB7FBBE1A372AB02)
    Complete name                            : F:\Student Of The Year (2012) 1080p - DVDRip - x264 - AC3 - 5.1 (DUS).mkv
    Format                                   : Matroska
    Format version                           : Version 2
    File size                                : 2.18 GiB
    Duration                                 : 2h 26mn
    Overall bit rate                         : 2 129 Kbps
    Encoded date                             : UTC 2013-01-02 15:46:35
    Writing application                      : mkvmerge v5.8.0 ('No Sleep / Pillow') built on Sep  2 2012 15:37:04
    Writing library                          : libebml v1.2.3 + libmatroska v1.3.0
    
    Video
    ID                                       : 1
    Format                                   : AVC
    Format/Info                              : Advanced Video Codec
    Format profile                           : [email protected]
    Format settings, CABAC                   : Yes
    Format settings, ReFrames                : 4 frames
    Codec ID                                 : V_MPEG4/ISO/AVC
    Duration                                 : 2h 26mn
    Bit rate                                 : 1 616 Kbps
    Width                                    : 1 920 pixels
    Height                                   : 816 pixels
    Display aspect ratio                     : 2.35:1
    Frame rate mode                          : Constant
    Frame rate                               : 23.976 fps
    Color space                              : YUV
    Chroma subsampling                       : 4:2:0
    Bit depth                                : 8 bits
    Scan type                                : Progressive
    Bits/(Pixel*Frame)                       : 0.043
    Stream size                              : 1.61 GiB (74%)
    Writing library                          : x264 core 129 r2230 1cffe9f
    Encoding settings                        : cabac=1 / ref=3 / deblock=1:0:0 / analyse=0x3:0x113 / me=hex / subme=7 / psy=1 / psy_rd=1.00:0.00 / mixed_ref=1 / me_range=16 / chroma_me=1 / trellis=1 / 8x8dct=1 / cqm=0 / deadzone=21,11 / fast_pskip=1 / chroma_qp_offset=-2 / threads=3 / lookahead_threads=1 / sliced_threads=0 / nr=0 / decimate=1 / interlaced=0 / bluray_compat=0 / constrained_intra=0 / bframes=3 / b_pyramid=2 / b_adapt=1 / b_bias=0 / direct=1 / weightb=1 / open_gop=0 / weightp=2 / keyint=240 / keyint_min=23 / scenecut=40 / intra_refresh=0 / rc_lookahead=40 / rc=2pass / mbtree=1 / bitrate=1616 / ratetol=1.0 / qcomp=0.60 / qpmin=10 / qpmax=51 / qpstep=4 / cplxblur=20.0 / qblur=0.5 / ip_ratio=1.40 / aq=1:1.00
    Language                                 : English
    Default                                  : Yes
    Forced                                   : No
    
    Audio
    ID                                       : 2
    Format                                   : AC-3
    Format/Info                              : Audio Coding 3
    Mode extension                           : CM (complete main)
    Format settings, Endianness              : Big
    Codec ID                                 : A_AC3
    Duration                                 : 2h 26mn
    Bit rate mode                            : Constant
    Bit rate                                 : 512 Kbps
    Channel(s)                               : 6 channels
    Channel positions                        : Front: L C R, Side: L R, LFE
    Sampling rate                            : 48.0 KHz
    Bit depth                                : 16 bits
    Compression mode                         : Lossy
    Stream size                              : 536 MiB (24%)
    Default                                  : Yes
    Forced                                   : No














    SINGLE DIRECT FAST LINKS
    Code:
    http://extabit.com/file/2duc4wathpq6b/Student.Of.The.Year.(2012).1080p.DVDRip.x264.AC3.5.1.(DUS).mkv
    Code:
    http://lumfile.com/6w8apymdxkn2/Student.Of.The.Year.(2012).1080p.DVDRip.x264.AC3.5.1.(DUS).mkv.html

    500MB LINKS

    Code:
    http://extabit.com/file/2duc4wathpmxv/Student.Of.The.Year.(2012).1080p.DVDRip.x264.AC3.5.1.(DUS).mkv.001
    http://extabit.com/file/2duc4wathptc3/Student.Of.The.Year.(2012).1080p.DVDRip.x264.AC3.5.1.(DUS).mkv.002
    http://extabit.com/file/2duc4wathpn0z/Student.Of.The.Year.(2012).1080p.DVDRip.x264.AC3.5.1.(DUS).mkv.003
    http://extabit.com/file/2duc4wathptcz/Student.Of.The.Year.(2012).1080p.DVDRip.x264.AC3.5.1.(DUS).mkv.004
    http://extabit.com/file/2duc4wathpwhf/Student.Of.The.Year.(2012).1080p.DVDRip.x264.AC3.5.1.(DUS).mkv.005
    Code:
    http://lumfile.com/unnvchdmlcnd/Student.Of.The.Year.(2012).1080p.DVDRip.x264.AC3.5.1.(DUS).mkv.001.html
    http://lumfile.com/nkfz1c78rer8/Student.Of.The.Year.(2012).1080p.DVDRip.x264.AC3.5.1.(DUS).mkv.002.html
    http://lumfile.com/wl6u9k7cw23q/Student.Of.The.Year.(2012).1080p.DVDRip.x264.AC3.5.1.(DUS).mkv.003.html
    http://lumfile.com/yp1j8vko8ct6/Student.Of.The.Year.(2012).1080p.DVDRip.x264.AC3.5.1.(DUS).mkv.004.html
    http://lumfile.com/2iaaa61xrapd/Student.Of.The.Year.(2012).1080p.DVDRip.x264.AC3.5.1.(DUS).mkv.005.html

 

 

Posting Permissions

  • You may not post new threads
  • You may not post replies
  • You may not post attachments
  • You may not edit your posts
  •