Results 1 to 1 of 1
  1. #1
    dR Rockers www.desirulez.net
    Join Date
    Aug 2011
    Posts
    5,859

    Cool Jab Tak Hai Jaan (2012) - Untouched - DVD5 - Remux - DD5.1 - Esubs - [-=ExDKING=-]

    Follow us on Social Media











    Code:
    Format                                   : Matroska
    File size                                : 3.62 GiB
    Duration                                 : 2h 56mn
    Overall bit rate mode                    : Variable
    Overall bit rate                         : 2 939 Kbps
    
    Video
    ID                                       : 1
    Format                                   : MPEG Video
    Format version                           : Version 2
    Format profile                           : [email protected]
    Format settings, BVOP                    : Yes
    Format settings, Matrix                  : Custom
    Format settings, GOP                     : Variable
    Codec ID                                 : V_MPEG2
    Codec ID/Info                            : MPEG 1 or 2 Video
    Duration                                 : 2h 56mn
    Bit rate mode                            : Variable
    Bit rate                                 : 2 433 Kbps
    Maximum bit rate                         : 8 000 Kbps
    Width                                    : 720 pixels
    Height                                   : 480 pixels
    Display aspect ratio                     : 16:9
    Frame rate mode                          : Constant
    Frame rate                               : 29.970 fps
    Standard                                 : NTSC
    Color space                              : YUV
    Chroma subsampling                       : 4:2:0
    Bit depth                                : 8 bits
    Scan type                                : Interlaced
    Scan order                               : Top Field First
    Compression mode                         : Lossy
    Bits/(Pixel*Frame)                       : 0.235
    Stream size                              : 2.99 GiB (83%)
    Default                                  : Yes
    Forced                                   : No
    
    Audio
    ID                                       : 2
    Format                                   : AC-3
    Format/Info                              : Audio Coding 3
    Mode extension                           : CM (complete main)
    Format settings, Endianness              : Big
    Muxing mode                              : Header stripping
    Codec ID                                 : A_AC3
    Duration                                 : 2h 56mn
    Bit rate mode                            : Constant
    Bit rate                                 : 448 Kbps
    Channel(s)                               : 6 channels
    Channel positions                        : Front: L C R, Side: L R, LFE
    Sampling rate                            : 48.0 KHz
    Bit depth                                : 16 bits
    Compression mode                         : Lossy
    Stream size                              : 565 MiB (15%)
    Default                                  : Yes
    Forced                                   : No



    SINGLE DIRECT FAST LINKS

    Code:
    http://lumfile.com/agff07iba4iu/Jab.Tak.Hai.Jaan.[2012].Untouched.DVD5.Remux.DD5.1.Esubs.[-=ExDKING=-].mkv.html
    Code:
    http://extabit.com/file/2duc4yxsdd1w0/Jab.Tak.Hai.Jaan.[2012].Untouched.DVD5.Remux.DD5.1.Esubs.[-=ExDKING=-].mkv


    1GB LINKS



    Code:
    http://lumfile.com/foowwu4nwj5e/Jab.Tak.Hai.Jaan.[2012].Untouched.DVD5.Remux.DD5.1.Esubs.[-=ExDKING=-].part1.rar.html
    http://lumfile.com/n7jqs6heoro8/Jab.Tak.Hai.Jaan.[2012].Untouched.DVD5.Remux.DD5.1.Esubs.[-=ExDKING=-].part2.rar.html
    http://lumfile.com/fsnedlo1sod6/Jab.Tak.Hai.Jaan.[2012].Untouched.DVD5.Remux.DD5.1.Esubs.[-=ExDKING=-].part3.rar.html
    http://lumfile.com/72w6n4sy1yic/Jab.Tak.Hai.Jaan.[2012].Untouched.DVD5.Remux.DD5.1.Esubs.[-=ExDKING=-].part4.rar.html
    http://lumfile.com/mx514vj21re8/Jab.Tak.Hai.Jaan.[2012].Untouched.DVD5.Remux.DD5.1.Esubs.[-=ExDKING=-].srt.html


    Code:
    http://extabit.com/file/2duc4yxsdc9fk/Jab.Tak.Hai.Jaan.[2012].Untouched.DVD5.Remux.DD5.1.Esubs.[-=ExDKING=-].part1.rar
    http://extabit.com/file/2duc4yxsdccgg/Jab.Tak.Hai.Jaan.[2012].Untouched.DVD5.Remux.DD5.1.Esubs.[-=ExDKING=-].part2.rar
    http://extabit.com/file/2duc4yxsdc31s/Jab.Tak.Hai.Jaan.[2012].Untouched.DVD5.Remux.DD5.1.Esubs.[-=ExDKING=-].part3.rar
    http://extabit.com/file/2duc4yxsdcclc/Jab.Tak.Hai.Jaan.[2012].Untouched.DVD5.Remux.DD5.1.Esubs.[-=ExDKING=-].part4.rar
    http://extabit.com/file/2duc4yxsdc9g0/Jab.Tak.Hai.Jaan.[2012].Untouched.DVD5.Remux.DD5.1.Esubs.[-=ExDKING=-].srt

 

 

Posting Permissions

  • You may not post new threads
  • You may not post replies
  • You may not post attachments
  • You may not edit your posts
  •