Loading...
Results 1 to 1 of 1
  1. #1
    Hot Member www.desirulez.net
    Join Date
    Oct 2011
    Posts
    536

    Thumbs up 1920 Evil Returns (2012) - 1/3 DVDRip - XviD - DD 5.1 - Esubs [DDR]

    Follow us on Social Media





    1920 Evil Returns (2012) - 1/3 DVDRip - XviD - DD 5.1 - Esubs [DDR]



    1920 Evil Returns (2012)
    **DVDRip XviD 5.1 AC3 ESubs**




    [ NFO ]

    Code:
    Complete name                            : dvdrip-1920er-ddr.avi
    Source      : DVD9 [DDR]
    Ripper      : th3obr0
    
    Format                                   : AVI
    Format/Info                              : Audio Video Interleave
    File size                                : 1.45 GiB
    Duration                                 : 1h 59mn
    Overall bit rate                         : 1 740 Kbps
    Writing application                      : VirtualDubMod 1.5.10.2 (build 2540/release)
    Writing library                          : VirtualDubMod build 2540/release
    
    Video
    ID                                       : 0
    Format                                   : MPEG-4 Visual
    Format profile                           : Advanced [email protected]
    Format settings, BVOP                    : 3
    Format settings, QPel                    : No
    Format settings, GMC                     : No warppoints
    Format settings, Matrix                  : Default (MPEG)
    Codec ID                                 : XVID
    Codec ID/Hint                            : XviD
    Duration                                 : 1h 59mn
    Bit rate                                 : 1 281 Kbps
    Width                                    : 720 pixels
    Height                                   : 304 pixels
    Display aspect ratio                     : 2.35:1
    Frame rate                               : 29.970 fps
    Color space                              : YUV
    Chroma subsampling                       : 4:2:0
    Bit depth                                : 8 bits
    Scan type                                : Progressive
    Compression mode                         : Lossy
    Bits/(Pixel*Frame)                       : 0.195
    Stream size                              : 1.07 GiB (74%)
    Writing library                          : XviD 1.2.1 (UTC 2008-12-04)
    
    Audio
    ID                                       : 1
    Format                                   : AC-3
    Format/Info                              : Audio Coding 3
    Mode extension                           : CM (complete main)
    Format settings, Endianness              : Big
    Codec ID                                 : 2000
    Duration                                 : 1h 59mn
    Bit rate mode                            : Constant
    Bit rate                                 : 448 Kbps
    Channel(s)                               : 6 channels
    Channel positions                        : Front: L C R, Side: L R, LFE
    Sampling rate                            : 48.0 KHz
    Bit depth                                : 16 bits
    Compression mode                         : Lossy
    Stream size                              : 382 MiB (26%)
    Alignment                                : Split accross interleaves
    Interleave, duration                     : 33 ms (1.00 video frame)
    Interleave, preload duration             : 500 ms
    [ SCREENS ]


















    SAMPLE | SIZE: 9.58 MB
    Code:
    http://rapidgator.net/file/66496798/dvdrip-1920er-ddr-Sample.avi.html
    http://extabit.com/file/279rgtv9cd7mi/dvdrip-1920er-ddr-Sample.avi
    -----DOWNLOAD-----

    -----SINGLE LINK | SIZE: 1.45 GB-----

    EXTABIT
    Code:
    http://extabit.com/file/279rgtv9bpolm/dvdrip-1920er-ddr.avi
    
    http://extabit.com/file/279rgtv9cd7my/dvdrip-1920er-ddr.rar
    http://extabit.com/file/279rgtv9cd7ne/dvdrip-1920er-ddr.srt
    RAPIDGATOR
    Code:
    http://rapidgator.net/file/66497564/dvdrip-1920er-ddr.avi.html
    
    http://rapidgator.net/file/66496961/dvdrip-1920er-ddr.srt.html
    http://rapidgator.net/file/66496960/dvdrip-1920er-ddr.rar.html
    UPLOADED
    Code:
    http://uploaded.net/file/a09k41hm/dvdrip-1920er-ddr.avi
    
    http://uploaded.net/file/j1agcvqa/dvdrip-1920er-ddr.srt
    http://uploaded.net/file/9mj27jdi/dvdrip-1920er-ddr.rar
    NETLOAD
    Code:
    http://www.netload.in/datei3Jv1DwkTKe/dvdrip-1920er-ddr.avi.htm
    
    http://www.netload.in/dateimXxEg1XPyO/dvdrip-1920er-ddr.rar.htm
    http://www.netload.in/datei0IvE8lvbPf/dvdrip-1920er-ddr.srt.htm
    LUMFILE
    Code:
    http://lumfile.com/3iwqumz043v4/dvdrip-1920er-ddr.avi.html
    
    http://lumfile.com/hretig1q121u/dvdrip-1920er-ddr.rar.html
    http://lumfile.com/nblryoche46o/dvdrip-1920er-ddr.srt.html



    =======================
    Thanks For Download !!!
    =======================

 

 

Posting Permissions

  • You may not post new threads
  • You may not post replies
  • You may not post attachments
  • You may not edit your posts
  •