Results 1 to 1 of 1
  1. #1
    Hot Member www.desirulez.net
    Join Date
    Jul 2012
    Posts
    643

    Default Soul of Sand (Pairon Talle) (2010) 1/3DVDRip - XviD - AC3 - [DDR-ExclusivE]

    Follow us on Social Media





    Soul of Sand (Pairon Talle) (2010) 1/3DVDRip - XviD - AC3 - [DDR-ExclusivE]


    Soul of Sand (Pairon Talle) (2010)
    **Rated: [18+] Adults Only**




    [ NFO ]

    Code:
    Complete name                            : dvdrip-sosand-ddr.avi
    Source					 : DVD9 [DDR]
    Ripper					 : th3obr0
    
    Format                                   : AVI
    Format/Info                              : Audio Video Interleave
    File size                                : 1.45 GiB
    Duration                                 : 1h 38mn
    Overall bit rate                         : 2 102 Kbps
    Writing application                      : VirtualDubMod 1.5.10.2 (build 2540/release)
    Writing library                          : VirtualDubMod build 2540/release
    
    Video
    ID                                       : 0
    Format                                   : MPEG-4 Visual
    Format profile                           : Advanced [email protected]
    Format settings, BVOP                    : 3
    Format settings, QPel                    : No
    Format settings, GMC                     : No warppoints
    Format settings, Matrix                  : Default (MPEG)
    Codec ID                                 : XVID
    Codec ID/Hint                            : XviD
    Duration                                 : 1h 38mn
    Bit rate                                 : 1 901 Kbps
    Width                                    : 720 pixels
    Height                                   : 400 pixels
    Display aspect ratio                     : 16:9
    Frame rate                               : 23.976 fps
    Color space                              : YUV
    Chroma subsampling                       : 4:2:0
    Bit depth                                : 8 bits
    Scan type                                : Progressive
    Compression mode                         : Lossy
    Bits/(Pixel*Frame)                       : 0.275
    Stream size                              : 1.31 GiB (90%)
    Writing library                          : XviD 1.2.1 (UTC 2008-12-04)
    
    Audio
    ID                                       : 1
    Format                                   : AC-3
    Format/Info                              : Audio Coding 3
    Mode extension                           : CM (complete main)
    Format settings, Endianness              : Big
    Codec ID                                 : 2000
    Duration                                 : 1h 38mn
    Bit rate mode                            : Constant
    Bit rate                                 : 192 Kbps
    Channel(s)                               : 2 channels
    Channel positions                        : Front: L R
    Sampling rate                            : 48.0 KHz
    Bit depth                                : 16 bits
    Compression mode                         : Lossy
    Stream size                              : 136 MiB (9%)
    Alignment                                : Split accross interleaves
    Interleave, duration                     : 42 ms (1.00 video frame)
    Interleave, preload duration             : 500 ms
    [ SCREENS ]






    [ SAMPLE ]

    Code:
    [18M - 00:01:00]
    http://upload-novalayer.com/siw02dlwvsta.html
    [ NOTICE ]


    If U Like My Post Willing To Buy Premium For High Speed Resumable downloads Pls BuY Premium From This Links
    Code:
    http://lumfile.com/7lwstak7vuka/dvdrip-sosand-ddr.avi.html
    Code:
    http://extabit.com/file/279wz7hqxs8ih/dvdrip-sosand-ddr.avi.002
    http://extabit.com/file/279wz7hqxs8jd/dvdrip-sosand-ddr.avi.001
    Code:
    http://uploaded.net/file/x4m5vfzd/dvdrip-sosand-ddr.avi.001
    http://uploaded.net/file/wnd3t8g1/dvdrip-sosand-ddr.avi.002

 

 

Posting Permissions

  • You may not post new threads
  • You may not post replies
  • You may not post attachments
  • You may not edit your posts
  •