Results 1 to 1 of 1
  1. #1
    Hot Member www.desirulez.net
    Join Date
    Jul 2012
    Posts
    643

    Default 1920 Evil Returns (2012) - 1CD - DVDRip - XviD - Esubs [DDR]

    Follow us on Social Media





    1920 Evil Returns (2012) - 1CD - DVDRip - XviD - Esubs [DDR]




    1920 Evil Returns (2012)
    **DVDRip XviD ESubs**




    [ NFO ]

    Code:
    Complete name                            : 1cd-dvdrip-1920er-ddr.avi
    Source					 : DVD9 [DDR]
    Ripper					 : th3obr0
    
    Format                                   : AVI
    Format/Info                              : Audio Video Interleave
    File size                                : 699 MiB
    Duration                                 : 1h 59mn
    Overall bit rate mode                    : Variable
    Overall bit rate                         : 819 Kbps
    Writing application                      : VirtualDubMod 1.5.10.2 (build 2540/release)
    Writing library                          : VirtualDubMod build 2540/release
    
    Video
    ID                                       : 0
    Format                                   : MPEG-4 Visual
    Format profile                           : Advanced [email protected]
    Format settings, BVOP                    : 1
    Format settings, QPel                    : No
    Format settings, GMC                     : No warppoints
    Format settings, Matrix                  : Default (H.263)
    Codec ID                                 : XVID
    Codec ID/Hint                            : XviD
    Duration                                 : 1h 59mn
    Bit rate                                 : 712 Kbps
    Width                                    : 640 pixels
    Height                                   : 272 pixels
    Display aspect ratio                     : 2.35:1
    Frame rate                               : 29.970 fps
    Color space                              : YUV
    Chroma subsampling                       : 4:2:0
    Bit depth                                : 8 bits
    Scan type                                : Progressive
    Compression mode                         : Lossy
    Bits/(Pixel*Frame)                       : 0.136
    Stream size                              : 607 MiB (87%)
    Writing library                          : XviD 1.2.1 (UTC 2008-12-04)
    
    Audio
    ID                                       : 1
    Format                                   : MPEG Audio
    Format version                           : Version 1
    Format profile                           : Layer 3
    Mode                                     : Joint stereo
    Mode extension                           : MS Stereo
    Codec ID                                 : 55
    Codec ID/Hint                            : MP3
    Duration                                 : 1h 59mn
    Bit rate mode                            : Variable
    Bit rate                                 : 96.0 Kbps
    Channel(s)                               : 2 channels
    Sampling rate                            : 32.0 KHz
    Compression mode                         : Lossy
    Stream size                              : 82.3 MiB (12%)
    Alignment                                : Aligned on interleaves
    Interleave, duration                     : 36 ms (1.08 video frame)
    Interleave, preload duration             : 202 ms
    Writing library                          : LAME3.90.
    Encoding settings                        : -m j -V 4 -q 2 -lowpass 15.4 --abr 96
    [ SCREENS ]







    Sample
    Code:
    http://upload-novalayer.com/8ucrebe61zyx.html


    If U Like My Post Willing To Buy Premium For High Speed Resumable downloads Pls BuY Premium From This Links
    Code:
    http://lumfile.com/p58lvkci3jj9/1cd-dvdrip-1920er-ddr.avi.html
    
    http://uploaded.net/file/j1inplp8/1cd-dvdrip-1920er-ddr.avi
    
    http://rapidgator.net/file/66503417/1cd-dvdrip-1920er-ddr.avi.html

 

 

Posting Permissions

  • You may not post new threads
  • You may not post replies
  • You may not post attachments
  • You may not edit your posts
  •