Results 1 to 2 of 2
  1. #1
    dR Rockers www.desirulez.net
    Join Date
    Aug 2011
    Posts
    5,859

    Cool 1920: Evil Returns (2012) 720p - DVDRip - x264 - AC3 - ESubs [DDR]

    Follow us on Social Media













    1920: Evil Returns (2012)
    **720p DVDRip 5.1 AC3 ESubs**


    Code:
    Complete name                            : 720p-dvdrip-1920er-ddr.mkv
    Source                     : DVD9 [DDR]
    Ripper                     : th3obr0
    
    Format                                   : Matroska
    Format version                           : Version 2
    File size                                : 3.12 GiB
    Duration                                 : 1h 59mn
    Overall bit rate                         : 3 748 Kbps
    Encoded date                             : UTC 2012-12-30 07:24:50
    Writing application                      : mkvmerge v5.7.0 ('The Whirlwind') built on Jul  8 
    
    2012 20:08:51
    Writing library                          : libebml v1.2.3 + libmatroska v1.3.0
    
    Video
    ID                                       : 1
    Format                                   : AVC
    Format/Info                              : Advanced Video Codec
    Format profile                           : [email protected]
    Format settings, CABAC                   : Yes
    Format settings, ReFrames                : 4 frames
    Codec ID                                 : V_MPEG4/ISO/AVC
    Duration                                 : 1h 59mn
    Bit rate                                 : 3 297 Kbps
    Width                                    : 1 280 pixels
    Height                                   : 544 pixels
    Display aspect ratio                     : 2.35:1
    Frame rate                               : 29.970 fps
    Color space                              : YUV
    Chroma subsampling                       : 4:2:0
    Bit depth                                : 8 bits
    Scan type                                : Progressive
    Bits/(Pixel*Frame)                       : 0.158
    Stream size                              : 2.69 GiB (86%)
    Title                                    : 1920 720p [DDR]
    Writing library                          : x264 core 125 r2200 999b753
    Default                                  : Yes
    Forced                                   : No
    
    Audio
    ID                                       : 2
    Format                                   : AC-3
    Format/Info                              : Audio Coding 3
    Mode extension                           : CM (complete main)
    Format settings, Endianness              : Big
    Codec ID                                 : A_AC3
    Duration                                 : 1h 59mn
    Bit rate mode                            : Constant
    Bit rate                                 : 448 Kbps
    Channel(s)                               : 6 channels
    Channel positions                        : Front: L C R, Side: L R, LFE
    Sampling rate                            : 48.0 KHz
    Bit depth                                : 16 bits
    Compression mode                         : Lossy
    Stream size                              : 382 MiB (12%)
    Title                                    : Hindi 5.1 [DDR]
    Language                                 : Hindi
    Default                                  : Yes
    Forced                                   : No
































    SINGLE DIRECT FAST LINKS

    Code:
    http://extabit.com/file/2ducb9f1zx8cw/1920.Evil.Returns.(2012).720p.DVDRip.x264.AC3.ESubs.[DDR].mkv


    700MB LINKS




    Code:
    http://extabit.com/file/2ducb9f20k8e8/1920.Evil.Returns.(2012).720p.DVDRip.x264.AC3.ESubs.[DDR].mkv.001
    http://extabit.com/file/2ducb9f20k8gg/1920.Evil.Returns.(2012).720p.DVDRip.x264.AC3.ESubs.[DDR].mkv.002
    http://extabit.com/file/2ducb9f20jyxs/1920.Evil.Returns.(2012).720p.DVDRip.x264.AC3.ESubs.[DDR].mkv.003
    http://extabit.com/file/2ducb9f20k8bk/1920.Evil.Returns.(2012).720p.DVDRip.x264.AC3.ESubs.[DDR].mkv.004
    http://extabit.com/file/2ducb9f20k568/1920.Evil.Returns.(2012).720p.DVDRip.x264.AC3.ESubs.[DDR].mkv.005
    http://extabit.com/file/2ducb9f20keq8/1920.Evil.Returns.(2012).720p.DVDRip.x264.AC3.ESubs.[DDR].rar
    http://extabit.com/file/2ducb9f20kes0/1920.Evil.Returns.(2012).720p.DVDRip.x264.AC3.ESubs.[DDR].srt

    Code:
    http://lumfile.com/kogy444ch0rq/1920.Evil.Returns.(2012).720p.DVDRip.x264.AC3.ESubs.[DDR].mkv.001.html
    http://lumfile.com/5r1v7jtf8xn0/1920.Evil.Returns.(2012).720p.DVDRip.x264.AC3.ESubs.[DDR].mkv.002.html
    http://lumfile.com/v96baglbkzwx/1920.Evil.Returns.(2012).720p.DVDRip.x264.AC3.ESubs.[DDR].mkv.003.html
    http://lumfile.com/iogm3qr9ayo7/1920.Evil.Returns.(2012).720p.DVDRip.x264.AC3.ESubs.[DDR].mkv.004.html
    http://lumfile.com/l8iuin88h7py/1920.Evil.Returns.(2012).720p.DVDRip.x264.AC3.ESubs.[DDR].mkv.005.html
    http://lumfile.com/euizxs5nookz/1920.Evil.Returns.(2012).720p.DVDRip.x264.AC3.ESubs.[DDR].rar.html
    http://lumfile.com/vfybymk87m3b/1920.Evil.Returns.(2012).720p.DVDRip.x264.AC3.ESubs.[DDR].srt.html

  2. #2
    { dR H3R0 >>> MK <<< } www.desirulez.net
    Join Date
    Dec 2012
    Location
    Pakistan
    Posts
    958

    Default

    NyC thanks for share

 

 

Posting Permissions

  • You may not post new threads
  • You may not post replies
  • You may not post attachments
  • You may not edit your posts
  •