Results 1 to 1 of 1
  1. #1
    dR Rockers www.desirulez.net
    Join Date
    Aug 2011
    Posts
    5,859

    Cool Student Of The Year (2012) - 4.37GB - DVDRip - 720p - x264 - Msubs - DUS

    Follow us on Social Media












    Code:
    Source : TeamDST
    
    General
    Unique ID                                : 201798780790189672172574869271302776788 (0x97D1080E2FB33F459ED4DA861C7A27D4)
    Complete name                            : H:\Downloads\SOTY (2012) DVDRip 720p x264 - DUS\Student Of The Year (2012) DVDRip - 720p Upscaled - Msubs (DUS).mkv
    Format                                   : Matroska
    Format version                           : Version 2
    File size                                : 4.37 GiB
    Duration                                 : 2h 26mn
    Overall bit rate                         : 4 276 Kbps
    Encoded date                             : UTC 2012-12-28 05:21:19
    Writing application                      : mkvmerge v4.9.1 ('Ich will') built on Jul 11 2011 23:53:15
    Writing library                          : libebml v1.2.1 + libmatroska v1.1.1
    
    Video
    ID                                       : 1
    Format                                   : AVC
    Format/Info                              : Advanced Video Codec
    Format profile                           : [email protected]
    Format settings, CABAC                   : Yes
    Format settings, ReFrames                : 4 frames
    Codec ID                                 : V_MPEG4/ISO/AVC
    Duration                                 : 2h 26mn
    Bit rate                                 : 3 827 Kbps
    Width                                    : 1 280 pixels
    Height                                   : 544 pixels
    Display aspect ratio                     : 2.35:1
    Frame rate mode                          : Constant
    Frame rate                               : 23.976 fps
    Color space                              : YUV
    Chroma subsampling                       : 4:2:0
    Bit depth                                : 8 bits
    Scan type                                : Progressive
    Bits/(Pixel*Frame)                       : 0.229
    Stream size                              : 3.83 GiB (88%)
    Writing library                          : x264 core 116 r2074 2641b9e
    Encoding settings                        : cabac=1 / ref=3 / deblock=1:0:0 / analyse=0x3:0x111 / me=hex / subme=7 / psy=1 / psy_rd=1.00:0.00 / mixed_ref=1 / me_range=16 / chroma_me=1 / trellis=1 / 8x8dct=1 / cqm=0 / deadzone=21,11 / fast_pskip=1 / chroma_qp_offset=-2 / threads=6 / sliced_threads=0 / nr=0 / decimate=1 / interlaced=0 / bluray_compat=0 / constrained_intra=0 / bframes=3 / b_pyramid=2 / b_adapt=1 / b_bias=0 / direct=1 / weightb=1 / open_gop=0 / weightp=2 / keyint=250 / keyint_min=23 / scenecut=40 / intra_refresh=0 / rc_lookahead=40 / rc=2pass / mbtree=1 / bitrate=3827 / ratetol=1.0 / qcomp=0.60 / qpmin=0 / qpmax=69 / qpstep=4 / cplxblur=20.0 / qblur=0.5 / ip_ratio=1.40 / aq=1:1.00
    Default                                  : Yes
    Forced                                   : No
    
    Audio
    ID                                       : 2
    Format                                   : AC-3
    Format/Info                              : Audio Coding 3
    Mode extension                           : CM (complete main)
    Format settings, Endianness              : Big
    Codec ID                                 : A_AC3
    Duration                                 : 2h 26mn
    Bit rate mode                            : Constant
    Bit rate                                 : 448 Kbps
    Channel(s)                               : 6 channels
    Channel positions                        : Front: L C R, Side: L R, LFE
    Sampling rate                            : 48.0 KHz
    Bit depth                                : 16 bits
    Compression mode                         : Lossy
    Stream size                              : 469 MiB (10%)
    Default                                  : Yes
    Forced                                   : No
    ** Screens **















    SINGLE DIRECT FAST LINKS

    Code:
    http://extabit.com/file/2ducb9gs0f0dc/Student.Of.The.Year.(2012).DVDRip.720p.Upscaled.Msubs.(DUS).mkv

    1GB LINKS


    Code:
    http://extabit.com/file/2ducb9gs10ygg/Student.Of.The.Year.(2012).DVDRip.720p.Upscaled.Msubs.(DUS).mkv.001
    http://extabit.com/file/2ducb9gs1nfhc/Student.Of.The.Year.(2012).DVDRip.720p.Upscaled.Msubs.(DUS).mkv.002
    http://extabit.com/file/2ducb9grx9uds/Student.Of.The.Year.(2012).DVDRip.720p.Upscaled.Msubs.(DUS).mkv.003
    http://extabit.com/file/2ducb9grxa0sw/Student.Of.The.Year.(2012).DVDRip.720p.Upscaled.Msubs.(DUS).mkv.004
    http://extabit.com/file/2ducb9grxxa9c/Student.Of.The.Year.(2012).DVDRip.720p.Upscaled.Msubs.(DUS).mkv.005
    http://extabit.com/file/2ducb9grxwkyo/Student.Of.The.Year.(2012).DVDRip.720p.Upscaled.Msubs.(DUS).sub
    http://extabit.com/file/2ducb9gryjl28/Student.Of.The.Year.(2012).DVDRip.720p.Upscaled.Msubs.(DUS).idx


    Code:
    http://lumfile.com/w8u1x8cdmeag/Student.Of.The.Year.(2012).DVDRip.720p.Upscaled.Msubs.(DUS).mkv.001.html
    http://lumfile.com/8byw0xaxcpp4/Student.Of.The.Year.(2012).DVDRip.720p.Upscaled.Msubs.(DUS).mkv.002.html
    http://lumfile.com/7z3flbueclll/Student.Of.The.Year.(2012).DVDRip.720p.Upscaled.Msubs.(DUS).mkv.003.html
    http://lumfile.com/ue5wok2iyrdx/Student.Of.The.Year.(2012).DVDRip.720p.Upscaled.Msubs.(DUS).mkv.004.html
    http://lumfile.com/uf0yxuswxa8a/Student.Of.The.Year.(2012).DVDRip.720p.Upscaled.Msubs.(DUS).mkv.005.html
    http://lumfile.com/q2o3gzy94iko/Student.Of.The.Year.(2012).DVDRip.720p.Upscaled.Msubs.(DUS).sub.html
    http://lumfile.com/3et3dcjlezve/Student.Of.The.Year.(2012).DVDRip.720p.Upscaled.Msubs.(DUS).idx.html

 

 

Posting Permissions

  • You may not post new threads
  • You may not post replies
  • You may not post attachments
  • You may not edit your posts
  •