Results 1 to 1 of 1
  1. #1
    dR Rockers www.desirulez.net
    Join Date
    Aug 2011
    Posts
    5,859

    Cool Soul of Sand (Pairon Talle) (2012) 720p - DVDRip - x264 - AC3 - ESubs DDR-ExclusivE

    Follow us on Social Media











    Soul of Sand (Pairon Talle) (2010)
    **Rated: [18+] Adults Only**




    Code:
    Complete name                            : 720p-dvdrip-sosand-ddr.mkv
    Source                     : DVD9 [DDR]
    Ripper                     : th3obr0
    
    Format                                   : Matroska
    Format version                           : Version 2
    File size                                : 2.18 GiB
    Duration                                 : 1h 38mn
    Overall bit rate                         : 3 157 Kbps
    Encoded date                             : UTC 2012-12-26 18:05:17
    Writing application                      : mkvmerge v5.7.0 ('The Whirlwind') built on Jul  8 2012 20:08:51
    Writing library                          : libebml v1.2.3 + libmatroska v1.3.0
    
    Video
    ID                                       : 1
    Format                                   : AVC
    Format/Info                              : Advanced Video Codec
    Format profile                           : [email protected]
    Format settings, CABAC                   : Yes
    Format settings, ReFrames                : 4 frames
    Codec ID                                 : V_MPEG4/ISO/AVC
    Duration                                 : 1h 38mn
    Bit rate                                 : 2 964 Kbps
    Width                                    : 1 280 pixels
    Height                                   : 704 pixels
    Display aspect ratio                     : 16:9
    Frame rate                               : 23.976 fps
    Color space                              : YUV
    Chroma subsampling                       : 4:2:0
    Bit depth                                : 8 bits
    Scan type                                : Progressive
    Bits/(Pixel*Frame)                       : 0.137
    Stream size                              : 2.00 GiB (92%)
    Title                                    : DDR
    Writing library                          : x264 core 125 r2200 999b753
    Language                                 : English
    Default                                  : Yes
    Forced                                   : No
    
    Audio
    ID                                       : 2
    Format                                   : AC-3
    Format/Info                              : Audio Coding 3
    Mode extension                           : CM (complete main)
    Format settings, Endianness              : Big
    Codec ID                                 : A_AC3
    Duration                                 : 1h 38mn
    Bit rate mode                            : Constant
    Bit rate                                 : 192 Kbps
    Channel(s)                               : 2 channels
    Channel positions                        : Front: L R
    Sampling rate                            : 48.0 KHz
    Bit depth                                : 16 bits
    Compression mode                         : Lossy
    Stream size                              : 136 MiB (6%)
    Title                                    : DDR
    Language                                 : Hindi
    Default                                  : Yes
    Forced                                   : No

















    SINGLE DIRECT FAST LINKS

    Code:
    http://extabit.com/file/2ducb9gs0f3fk/Soul.of.Sand.(Pairon.Talle).(2010).720p.DVDRip.x264.ESubs.[DDR].mkv
    Code:
    http://lumfile.com/zb42wul1pkkt/Soul.of.Sand.(Pairon.Talle).(2010).720p.DVDRip.x264.ESubs.[DDR].mkv.html

    700MB LINKS


    Code:
    http://extabit.com/file/2ducb9grxvyuo/Soul.of.Sand.(Pairon.Talle).(2010).720p.DVDRip.x264.ESubs.[DDR].mkv.001
    http://extabit.com/file/2ducb9grxx0tc/Soul.of.Sand.(Pairon.Talle).(2010).720p.DVDRip.x264.ESubs.[DDR].mkv.002
    http://extabit.com/file/2ducb9grx9xog/Soul.of.Sand.(Pairon.Talle).(2010).720p.DVDRip.x264.ESubs.[DDR].mkv.003
    http://extabit.com/file/2ducb9grxwhwg/Soul.of.Sand.(Pairon.Talle).(2010).720p.DVDRip.x264.ESubs.[DDR].mkv.004


    Code:
    http://lumfile.com/vk04f0aa0xvk/Soul.of.Sand.(Pairon.Talle).(2010).720p.DVDRip.x264.ESubs.[DDR].mkv.001.html
    http://lumfile.com/6nezu0webzo6/Soul.of.Sand.(Pairon.Talle).(2010).720p.DVDRip.x264.ESubs.[DDR].mkv.002.html
    http://lumfile.com/7r0s8y6ovsvq/Soul.of.Sand.(Pairon.Talle).(2010).720p.DVDRip.x264.ESubs.[DDR].mkv.003.html
    http://lumfile.com/h7dibxyioobz/Soul.of.Sand.(Pairon.Talle).(2010).720p.DVDRip.x264.ESubs.[DDR].mkv.004.html

 

 

Posting Permissions

  • You may not post new threads
  • You may not post replies
  • You may not post attachments
  • You may not edit your posts
  •