Results 1 to 1 of 1
  1. #1
    Super Member www.desirulez.net
    Join Date
    Jan 2012
    Posts
    408

    Thumbs up 1920 Evil Returns (2012))-DVDRip - XviD - 1CDRip -By Kartik [ExD]

    Follow us on Social Media






    Code:
    Format                                   : AVI
    Format/Info                              : Audio Video Interleave
    File size                                : 697 MiB
    Duration                                 : 1h 59mn
    Overall bit rate                         : 818 Kbps
    
    ID                                       : 0
    Format                                   : MPEG-4 Visual
    Format profile                           : Advanced [email protected]
    Format settings, BVOP                    : 2
    Format settings, QPel                    : No
    Format settings, GMC                     : No warppoints
    Format settings, Matrix                  : Default (H.263)
    Codec ID                                 : XVID
    Codec ID/Hint                            : XviD
    Duration                                 : 1h 59mn
    Bit rate                                 : 681 Kbps
    Width                                    : 688 pixels
    Height                                   : 288 pixels
    Display aspect ratio                     : 2.40:1
    Frame rate                               : 29.970 fps
    Color space                              : YUV
    Chroma subsampling                       : 4:2:0
    Bit depth                                : 8 bits
    Scan type                                : Progressive
    Compression mode                         : Lossy
    Bits/(Pixel*Frame)                       : 0.115
    Stream size                              : 581 MiB (83%)
    Writing library                          : XviD 1.2.1 (UTC 2008-12-04)
    
    Format                                   : AC-3
    Format/Info                              : Audio Coding 3
    Mode extension                           : CM (complete main)
    Format settings, Endianness              : Big
    Codec ID                                 : 2000
    Duration                                 : 1h 59mn
    Bit rate mode                            : Constant
    Bit rate                                 : 128 Kbps
    Channel(s)                               : 6 channels
    Channel positions                        : Front: L C R, Side: L R, LFE
    Sampling rate                            : 48.0 KHz
    Bit depth                                : 16 bits
    Compression mode                         : Lossy
    Stream size                              : 109 MiB (16%)
    Alignment                                : Aligned on interleaves
    Interleave, duration                     : 64 ms (1.92 video frames)
    Interleave, preload duration             : 192 ms
    Title                                    : VTS_02_1 T80 3_2ch 448Kbps DELAY 0ms_new












    Code:
    http://filevice.com/1ly66eny52yf/1920_2.avi
    
    http://turbobit.net/1mfxx7d01hur.html
    
    http://filegag.com/w85wihbjbf9a
    
    http://uploking.com/file/zuA0n2P/1920-2.avi
    ubs:

    Code:
    http://filevice.com/af5nsv5ah5i4/1920_2.srt

 

 

Posting Permissions

  • You may not post new threads
  • You may not post replies
  • You may not post attachments
  • You may not edit your posts
  •