Results 1 to 1 of 1
  1. #1
    Super Member www.desirulez.net
    Join Date
    Jan 2012
    Posts
    408

    Thumbs up Soul of Sand (Pairon Talle) (2010) DVDRip - XviD - MP3 - 1xCD [DDR]

    Follow us on Social Media







    Soul of Sand (Pairon Talle) (2010)
    **Rated: [18+] Adults Only**


    Code:
    Complete name                            : 1cd-dvdrip-sosand-ddr.avi
    Source					 : DVD9 [DDR]
    Ripper					 : th3obr0
    
    Format                                   : AVI
    Format/Info                              : Audio Video Interleave
    File size                                : 698 MiB
    Duration                                 : 1h 38mn
    Overall bit rate                         : 988 Kbps
    Writing application                      : VirtualDubMod 1.5.10.2 (build 2540/release)
    Writing library                          : VirtualDubMod build 2540/release
    
    Video
    ID                                       : 0
    Format                                   : MPEG-4 Visual
    Format profile                           : Advanced [email protected]
    Format settings, BVOP                    : 1
    Format settings, QPel                    : No
    Format settings, GMC                     : No warppoints
    Format settings, Matrix                  : Default (H.263)
    Codec ID                                 : XVID
    Codec ID/Hint                            : XviD
    Duration                                 : 1h 38mn
    Bit rate                                 : 851 Kbps
    Width                                    : 640 pixels
    Height                                   : 352 pixels
    Display aspect ratio                     : 16:9
    Frame rate                               : 23.976 fps
    Color space                              : YUV
    Chroma subsampling                       : 4:2:0
    Bit depth                                : 8 bits
    Scan type                                : Progressive
    Compression mode                         : Lossy
    Bits/(Pixel*Frame)                       : 0.157
    Stream size                              : 601 MiB (86%)
    Writing library                          : XviD 1.2.1 (UTC 2008-12-04)
    
    Audio
    ID                                       : 1
    Format                                   : MPEG Audio
    Format version                           : Version 1
    Format profile                           : Layer 3
    Mode                                     : Joint stereo
    Codec ID                                 : 55
    Codec ID/Hint                            : MP3
    Duration                                 : 1h 38mn
    Bit rate mode                            : Constant
    Bit rate                                 : 128 Kbps
    Channel(s)                               : 2 channels
    Sampling rate                            : 48.0 KHz
    Compression mode                         : Lossy
    Stream size                              : 90.4 MiB (13%)
    Alignment                                : Aligned on interleaves
    Interleave, duration                     : 42 ms (1.00 video frame)
    Interleave, preload duration             : 504 ms
    Writing library                          : LAME3.99r
    Encoding settings                        : -m j -V 4 -q 2 -lowpass 17 -b 128









    Code:
    http://filevice.com/qt0rqw2uivvy/1cd-dvdrip-sosand-ddr.avi
    
    http://uload.to/k9pira7iuuvd
    
    http://filegag.com/hls7eugkxee6
    
    http://turbobit.net/00f8h6atk96z.html

 

 

Posting Permissions

  • You may not post new threads
  • You may not post replies
  • You may not post attachments
  • You may not edit your posts
  •