Results 1 to 2 of 2
  1. #1
    dR Rockers www.desirulez.net
    Join Date
    Aug 2011
    Posts
    5,859

    Cool Student Of The Year (2012) - 720p - DVDRip - x264 - 6Ch - [EXD Exclusive]

    Follow us on Social Media












    Code:
    Rip Information
    
    Format                                   : Matroska
    Format version                           : Version 2
    File size                                : 1.46 GiB
    Duration                                 : 2h 26mn
    Overall bit rate                         : 1 435 Kbps
    Movie name                               : Student Of The Year  [2012][email protected] [EXD Exclusive]
    
    Video
    
    Codec ID                                 : V_MPEG4/ISO/AVC
    Duration                                 : 2h 26mn
    Bit rate                                 : 1 087 Kbps
    Nominal bit rate                         : 920 Kbps
    Width                                    : 1 280 pixels
    Height                                   : 534 pixels
    Display aspect ratio                     : 2.40:1
    Frame rate                               : 23.976 fps
    Color space                              : YUV
    Chroma subsampling                       : 4:2:0
    Bit depth                                : 8 bits
    Scan type                                : Progressive
    Bits/(Pixel*Frame)                       : 0.066
    Stream size                              : 1.11 GiB (76%)
    Title                                    : [email protected]
    Writing library                          : x264 core 129 r2230 1cffe9f
    
    Audio
    
    Format                                   : AC-3
    Format/Info                              : Audio Coding 3
    Mode extension                           : CM (complete main)
    Format settings, Endianness              : Big
    Muxing mode                              : Header stripping
    Codec ID                                 : A_AC3
    Duration                                 : 2h 26mn
    Bit rate mode                            : Constant
    Bit rate                                 : 320 Kbps
    Channel(s)                               : 6 channels
    Channel positions                        : Front: L C R, Side: L R, LFE
    Sampling rate                            : 48.0 KHz
    Bit depth                                : 16 bits
    Compression mode                         : Lossy
    Stream size                              : 334 MiB (22%)
    Title                                    : [email protected]
    Language                                 : Hindi
    Default                                  : Yes













    SINGLE DIRECT FAST LINKS

    Code:
    http://lumfile.com/i6pxhqxsi77w/Student.Of.The.YeaR.[2012].720p.DVDRip.x264.6Ch.[EXD.Exclusive].mkv.html
    http://lumfile.com/2v7ds43cm356/Student.Of.The.YeaR.[2012].720p.DVDRip.x264.6Ch.[EXD.Exclusive].srt.html

    Code:
    http://extabit.com/file/2ducbb7rz1w8x/Student.Of.The.YeaR.[2012].720p.DVDRip.x264.6Ch.[EXD.Exclusive].mkv
    http://extabit.com/file/2ducbb7rz1a75/Student.Of.The.YeaR.[2012].720p.DVDRip.x264.6Ch.[EXD.Exclusive].srt

  2. #2
    { dR H3R0 >>> MK <<< } www.desirulez.net
    Join Date
    Dec 2012
    Location
    Pakistan
    Posts
    958

    Default

    Thanks Dear for HD Quality

 

 

Posting Permissions

  • You may not post new threads
  • You may not post replies
  • You may not post attachments
  • You may not edit your posts
  •