Results 1 to 1 of 1
  1. #1
    Hot Member www.desirulez.net
    Join Date
    Feb 2011
    Location
    Bulletproof IP
    Posts
    1,189

    Default Dabangg 2 (2012) - 1/5 DVDScr - XviD - AC3 - ESubs - 900MB - [TDT]

    Follow us on Social Media





    Dabangg 2
    1/5 DVDScr - XviD - AC3 - ESubs - 900MB - TDT
    (2012)





    Code:
    Complete name : Dabangg 2 (2012) - Xvid - DvdScr Rip - AC3 - E-subs -[TDT].avi
    IMDB : http://www.imdb.com/title/tt2112131/
    Format : AVI
    File size : 896 MiB
    Duration : 1h 59mn
    Overall bit rate : 1 051 Kbps
    Source : DvdSCR @ Team ICTV
    Ripper : KingFisheR [~TDT~].
    
    Video
    
    Codec ID : XVID
    Duration : 1h 59mn
    Bit rate : 914 Kbps
    Width : 704 pixels
    Height : 272 pixels
    Display aspect ratio : 2.588
    Frame rate : 23.976 fps
    Bits/(Pixel*Frame) : 0.199
    Stream size : 779 MiB (87%)
    
    Audio
    
    Format : AC-3
    Duration : 1h 59mn
    Bit rate mode : Constant
    Bit rate : 128 Kbps
    Channel(s) : 2 channels
    Channel positions : Front: L R
    Sampling rate : 48.0 KHz
    Stream size : 109 MiB (12%)


















    All Credits Goes To KingFisheR @ TDT (Thanks)

    Size: 895.86 MB

    Code:
    http://turbobit.net/qjqy37rkrig2/D2-1-5-DVDScr-XviD-AC3-900MB-TDT.avi.html
    or
    http://rapidgator.net/file/65449447/D2-1-5-DVDScr-XviD-AC3-900MB-TDT.avi.html
    
    Subtitles:
    http://rapidgator.net/file/65477248/D2-1-5-DVDScr-XviD-AC3-900MB-TDT.srt.html

 

 

Posting Permissions

  • You may not post new threads
  • You may not post replies
  • You may not post attachments
  • You may not edit your posts
  •