Results 1 to 1 of 1
  1. #1
    Hot Member www.desirulez.net
    Join Date
    Jul 2012
    Posts
    643

    Default Diary Of A Butterfly (2012) - 1/3 HDRip - XviD - AC3 [DDR]

    Follow us on Social Media





    Diary Of A Butterfly (2012) - 1/3 HDRip - XviD - AC3 [DDR]




    Diary of a Butterfly (2012)
    **HDRip XviD AC3 1/3DVDr**




    [ NFO ]

    Code:
    Complete name                            : hdrip-doab-ddr.avi
    Source					 : DDR
    Ripper					 : th3obr0
    
    Format                                   : AVI
    Format/Info                              : Audio Video Interleave
    File size                                : 1.45 GiB
    Duration                                 : 1h 37mn
    Overall bit rate                         : 2 133 Kbps
    Writing application                      : VirtualDubMod 1.5.10.2 (build 2540/release)
    Writing library                          : VirtualDubMod build 2540/release
    
    Video
    ID                                       : 0
    Format                                   : MPEG-4 Visual
    Format profile                           : Advanced [email protected]
    Format settings, BVOP                    : 1
    Format settings, QPel                    : No
    Format settings, GMC                     : No warppoints
    Format settings, Matrix                  : Default (MPEG)
    Codec ID                                 : XVID
    Codec ID/Hint                            : XviD
    Duration                                 : 1h 37mn
    Bit rate                                 : 1 676 Kbps
    Width                                    : 720 pixels
    Height                                   : 304 pixels
    Display aspect ratio                     : 2.35:1
    Frame rate                               : 24.000 fps
    Color space                              : YUV
    Chroma subsampling                       : 4:2:0
    Bit depth                                : 8 bits
    Scan type                                : Progressive
    Compression mode                         : Lossy
    Bits/(Pixel*Frame)                       : 0.319
    Stream size                              : 1.14 GiB (79%)
    Writing library                          : XviD 1.2.1 (UTC 2008-12-04)
    
    Audio
    ID                                       : 1
    Format                                   : AC-3
    Format/Info                              : Audio Coding 3
    Mode extension                           : CM (complete main)
    Format settings, Endianness              : Big
    Codec ID                                 : 2000
    Duration                                 : 1h 37mn
    Bit rate mode                            : Constant
    Bit rate                                 : 448 Kbps
    Channel(s)                               : 2 channels
    Channel positions                        : Front: L R
    Sampling rate                            : 48.0 KHz
    Bit depth                                : 16 bits
    Compression mode                         : Lossy
    Stream size                              : 312 MiB (21%)
    Alignment                                : Split accross interleaves
    Interleave, duration                     : 42 ms (1.00 video frame)
    Interleave, preload duration             : 500 ms
    [ SCREENS ]













    Sample
    Code:
    http://upload-novalayer.com/zb0j4l337s1i.html


    If U Like My Post Willing To Buy Premium For High Speed Resumable downloads Pls BuY Premium From This Links
    Code:
    http://lumfile.com/iq4m7sy62o53/hdrip-doab-ddr.avi.html
    Code:
    http://uploaded.net/file/3zov2em6/hdrip-doab-ddr.avi.001
    http://uploaded.net/file/3qtknrar/hdrip-doab-ddr.avi.002
    Code:
    http://extabit.com/file/279wz99hzq8o2/hdrip-doab-ddr.avi.002
    http://extabit.com/file/279wz99i0cz6a/hdrip-doab-ddr.avi.001

 

 

Posting Permissions

  • You may not post new threads
  • You may not post replies
  • You may not post attachments
  • You may not edit your posts
  •