Results 1 to 1 of 1
  1. #1
    Hot Member www.desirulez.net
    Join Date
    Jul 2012
    Posts
    643

    Default Diary Of A Butterfly (2012) - 1CD - HDRip - XviD [DDR]

    Follow us on Social Media





    Diary Of A Butterfly (2012) - 1CD - HDRip - XviD [DDR]




    Diary of a Butterfly (2012)
    **HDRip XviD 1CDRip**




    [ NFO ]

    Code:
    Complete name                            : 1cd-hdrip-doab-ddr.avi
    Source					 : DDR
    Ripper					 : th3obr0
    
    Format                                   : AVI
    Format/Info                              : Audio Video Interleave
    File size                                : 700 MiB
    Duration                                 : 1h 37mn
    Overall bit rate mode                    : Variable
    Overall bit rate                         : 1 006 Kbps
    Writing application                      : VirtualDubMod 1.5.10.2 (build 2540/release)
    Writing library                          : VirtualDubMod build 2540/release
    
    Video
    ID                                       : 0
    Format                                   : MPEG-4 Visual
    Format profile                           : Advanced [email protected]
    Format settings, BVOP                    : 1
    Format settings, QPel                    : No
    Format settings, GMC                     : No warppoints
    Format settings, Matrix                  : Default (H.263)
    Codec ID                                 : XVID
    Codec ID/Hint                            : XviD
    Duration                                 : 1h 37mn
    Bit rate                                 : 875 Kbps
    Width                                    : 672 pixels
    Height                                   : 288 pixels
    Display aspect ratio                     : 2.35:1
    Frame rate                               : 24.000 fps
    Color space                              : YUV
    Chroma subsampling                       : 4:2:0
    Bit depth                                : 8 bits
    Scan type                                : Progressive
    Compression mode                         : Lossy
    Bits/(Pixel*Frame)                       : 0.188
    Stream size                              : 609 MiB (87%)
    Writing library                          : XviD 1.2.1 (UTC 2008-12-04)
    
    Audio
    ID                                       : 1
    Format                                   : MPEG Audio
    Format version                           : Version 1
    Format profile                           : Layer 3
    Mode                                     : Joint stereo
    Mode extension                           : MS Stereo
    Codec ID                                 : 55
    Codec ID/Hint                            : MP3
    Duration                                 : 1h 37mn
    Bit rate mode                            : Variable
    Bit rate                                 : 118 Kbps
    Nominal bit rate                         : 128 Kbps
    Channel(s)                               : 2 channels
    Sampling rate                            : 44.1 KHz
    Compression mode                         : Lossy
    Stream size                              : 82.0 MiB (12%)
    Alignment                                : Aligned on interleaves
    Interleave, duration                     : 26 ms (0.63 video frame)
    Interleave, preload duration             : 361 ms
    Writing library                          : LAME3.99r
    Encoding settings                        : -m j -V 4 -q 2 -lowpass 17 --abr 128
    [ SCREENS ]





    Sample
    Code:
    http://upload-novalayer.com/9khbqsum8ahi.html

    If U Like My Post Willing To Buy Premium For High Speed Resumable downloads Pls BuY Premium From This Links
    Code:
    http://lumfile.com/0hptgs0hcimd/1cd-hdrip-doab-ddr.avi.html
    
    http://uploaded.net/file/994blh97/1cd-hdrip-doab-ddr.avi
    
    http://extabit.com/file/279wz99i0od9t/1cd-hdrip-doab-ddr.avi

 

 

Posting Permissions

  • You may not post new threads
  • You may not post replies
  • You may not post attachments
  • You may not edit your posts
  •