Results 1 to 1 of 1
  1. #1

    Thumbs up Life Of Pi (2012) (Hindi) - 1/3 DVDScr - XviD - AC3 [DDR]

    Follow us on Social Media





    Life Of Pi (2012) (Hindi) - 1/3 DVDScr - XviD - AC3 [DDR]



    Code:
    General
    Complete name                            : dvdscr-lopi-ddr.avi
    Source					 : DDR
    Ripper					 : th3obr0
    
    Format                                   : AVI
    Format/Info                              : Audio Video Interleave
    File size                                : 1.45 GiB
    Duration                                 : 2h 5mn
    Overall bit rate                         : 1 658 Kbps
    Writing application                      : VirtualDubMod 1.5.10.2 (build 2540/release)
    Writing library                          : VirtualDubMod build 2540/release
    
    Video
    ID                                       : 0
    Format                                   : MPEG-4 Visual
    Format profile                           : Advanced [email protected]
    Format settings, BVOP                    : 1
    Format settings, QPel                    : No
    Format settings, GMC                     : No warppoints
    Format settings, Matrix                  : Default (MPEG)
    Codec ID                                 : XVID
    Codec ID/Hint                            : XviD
    Duration                                 : 2h 5mn
    Bit rate                                 : 1 425 Kbps
    Width                                    : 720 pixels
    Height                                   : 400 pixels
    Display aspect ratio                     : 16:9
    Frame rate                               : 25.000 fps
    Color space                              : YUV
    Chroma subsampling                       : 4:2:0
    Bit depth                                : 8 bits
    Scan type                                : Progressive
    Compression mode                         : Lossy
    Bits/(Pixel*Frame)                       : 0.198
    Stream size                              : 1.25 GiB (86%)
    Writing library                          : XviD 1.2.1 (UTC 2008-12-04)
    
    Audio
    ID                                       : 1
    Format                                   : AC-3
    Format/Info                              : Audio Coding 3
    Mode extension                           : CM (complete main)
    Format settings, Endianness              : Big
    Codec ID                                 : 2000
    Duration                                 : 2h 5mn
    Bit rate mode                            : Constant
    Bit rate                                 : 224 Kbps
    Channel(s)                               : 2 channels
    Channel positions                        : Front: L R
    Sampling rate                            : 48.0 KHz
    Bit depth                                : 16 bits
    Compression mode                         : Lossy
    Stream size                              : 201 MiB (14%)
    Alignment                                : Split accross interleaves
    Interleave, duration                     : 40 ms (1.00 video frame)
    Interleave, preload duration             : 500 ms









    Code:
    sample
    http://upload-novalayer.com/p4knw2nstqjl.html
    Code:
    Single Link
    http://uploadblast.com/x5cl2qhtd35b
    OR
    http://rapidgator.net/file/65254197/12.dvcr.lopi_dd12.avi.html
    Split inks
    http://extabit.com/file/279zr0f606ec9/12.dvcr.lopi_dd12.avi.001
    http://extabit.com/file/279zr0f606eeh/12.dvcr.lopi_dd12.avi.002
    OR
    http://turbobit.net/dtj1i543xx8i/12.dvcr.lopi_dd12.avi.001.html
    http://turbobit.net/5atkd25zxv4x/12.dvcr.lopi_dd12.avi.002.html
    OR
    http://uploaded.net/file/chygyri1/12.dvcr.lopi_dd12.avi.001
    http://uploaded.net/file/ov1nv3zo/12.dvcr.lopi_dd12.avi.002
    OR
    http://ultramegabit.com/file/details/SUBbvdpm288
    http://ultramegabit.com/file/details/RME-lIgmAkI
    OR
    http://www.uploadcore.com/drlal5r8myzu
    http://www.uploadcore.com/lugh6uwdsbdf
    OR
    http://bitshare.com/files/e4ngng67/12.dvcr.lopi_dd12.avi.001.html
    http://bitshare.com/files/3cklfs37/12.dvcr.lopi_dd12.avi.002.html



 

 

Posting Permissions

  • You may not post new threads
  • You may not post replies
  • You may not post attachments
  • You may not edit your posts
  •