Results 1 to 1 of 1
  1. #1
    dR Rockers www.desirulez.net
    Join Date
    Aug 2011
    Posts
    5,859

    Cool Yeh Jo mohabbat Hai (2012) - 720p - Upscaled - DvDRip - x264 - Ac-3 6.Ch - HeartLessS

    Follow us on Social Media














    Code:
    Ripper                                   : HearTLessS
    Source                                   : DVD9 UNTCH
    Complete name                            : Yeh Jo mohabbat Hai [2012] x264 720p Upscaled DvDRip Ac-3 6.Ch [M-Subs] by HeartLessS.mkv
    Format                                   : Matroska
    Format version                           : Version 2
    File size                                : 3.75 GiB
    Duration                                 : 2h 21mn
    Overall bit rate mode                    : Variable
    Overall bit rate                         : 3 803 Kbps
    Encoded date                             : UTC 2012-12-23 14:49:32
    Writing application                      : mkvmerge v5.6.0 ('Kenya Kane') built on May 27 2012 16:44:04
    Writing library                          : libebml v1.2.3 + libmatroska v1.3.0
    
    Video
    ID                                       : 1
    Format                                   : AVC
    Format/Info                              : Advanced Video Codec
    Format profile                           : [email protected]
    Format settings, CABAC                   : Yes
    Format settings, ReFrames                : 4 frames
    Codec ID                                 : V_MPEG4/ISO/AVC
    Duration                                 : 2h 21mn
    Bit rate mode                            : Variable
    Bit rate                                 : 3 416 Kbps
    Maximum bit rate                         : 50.0 Mbps
    Width                                    : 1 280 pixels
    Height                                   : 544 pixels
    Display aspect ratio                     : 2.35:1
    Original display aspect ratio            : 2.35:1
    Frame rate mode                          : Constant
    Frame rate                               : 29.970 fps
    Color space                              : YUV
    Chroma subsampling                       : 4:2:0
    Bit depth                                : 8 bits
    Scan type                                : MBAFF
    Bits/(Pixel*Frame)                       : 0.164
    Stream size                              : 3.30 GiB (88%)
    Title                                    : HearTLessS
    Writing library                          : x264 core 125 r2200 999b753
    Encoding settings                        : cabac=1 / ref=4 / deblock=1:-1:-1 / analyse=0x3:0x113 / me=hex / subme=7 / psy=1 / psy_rd=1.00:0.00 / mixed_ref=1 / me_range=16 / chroma_me=1 / trellis=1 / 8x8dct=1 / cqm=0 / deadzone=21,11 / fast_pskip=0 / chroma_qp_offset=-2 / threads=3 / lookahead_threads=1 / sliced_threads=0 / nr=0 / decimate=1 / interlaced=tff / bluray_compat=0 / constrained_intra=0 / bframes=3 / b_pyramid=2 / b_adapt=1 / b_bias=0 / direct=1 / weightb=1 / open_gop=0 / weightp=0 / keyint=300 / keyint_min=29 / scenecut=40 / intra_refresh=0 / rc_lookahead=40 / rc=2pass / mbtree=1 / bitrate=3416 / ratetol=1.0 / qcomp=0.60 / qpmin=0 / qpmax=69 / qpstep=4 / cplxblur=20.0 / qblur=0.5 / vbv_maxrate=50000 / vbv_bufsize=40000 / nal_hrd=vbr / ip_ratio=1.40 / aq=1:1.00
    
    Default                                  : Yes
    Forced                                   : No
    
    Audio
    ID                                       : 2
    Format                                   : AC-3
    Format/Info                              : Audio Coding 3
    Mode extension                           : CM (complete main)
    Format settings, Endianness              : Big
    Codec ID                                 : A_AC3
    Duration                                 : 2h 21mn
    Bit rate mode                            : Constant
    Bit rate                                 : 384 Kbps
    Channel(s)                               : 6 channels
    Channel positions                        : Front: L C R, Side: L R, LFE
    Sampling rate                            : 48.0 KHz
    Bit depth                                : 16 bits
    Compression mode                         : Lossy
    Stream size                              : 388 MiB (10%)
    Title                                    : HearTLessS
    Default                                  : Yes
    Forced                                   : No
    
    Text #1
    ID                                       : 3
    Format                                   : VobSub
    Muxing mode                              : zlib
    Codec ID                                 : S_VOBSUB
    Codec ID/Info                            : The same subtitle format used on DVDs
    Title                                    : HearTLessS
    Language                                 : English
    Default                                  : Yes
    Forced                                   : No
    
    Text #2
    ID                                       : 4
    Format                                   : VobSub
    Muxing mode                              : zlib
    Codec ID                                 : S_VOBSUB
    Codec ID/Info                            : The same subtitle format used on DVDs
    Title                                    : HearTLessS
    Language                                 : Arabic
    Default                                  : No
    Forced                                   : No
    Sample                                   : Included























    SINGLE DIRECT FAST LINKS



    Code:
    http://lumfile.com/eygpxlsz74vj/Yeh.Jo.Mohabbat.Hai.[2012].x264.720p.Upscaled.DvDRip.Ac-3.6.Ch.[M-Subs].HeartLessS.mkv.html
    Code:
    http://extabit.com/file/2ducbaazh86jr/Yeh.Jo.Mohabbat.Hai.[2012].x264.720p.Upscaled.DvDRip.Ac-3.6.Ch.[M-Subs].HeartLessS.mkv


    700MB LINKS



    Code:
    http://lumfile.com/j77av81f11mh/Yeh.Jo.Mohabbat.Hai.[2012].x264.720p.Upscaled.DvDRip.Ac-3.6.Ch.[M-Subs].HeartLessS.mkv.001.html
    http://lumfile.com/3bws212wdehq/Yeh.Jo.Mohabbat.Hai.[2012].x264.720p.Upscaled.DvDRip.Ac-3.6.Ch.[M-Subs].HeartLessS.mkv.002.html
    http://lumfile.com/r502nfnnzs2u/Yeh.Jo.Mohabbat.Hai.[2012].x264.720p.Upscaled.DvDRip.Ac-3.6.Ch.[M-Subs].HeartLessS.mkv.003.html
    http://lumfile.com/0vwfotflcvq4/Yeh.Jo.Mohabbat.Hai.[2012].x264.720p.Upscaled.DvDRip.Ac-3.6.Ch.[M-Subs].HeartLessS.mkv.004.html
    http://lumfile.com/i3w3ktxr8vak/Yeh.Jo.Mohabbat.Hai.[2012].x264.720p.Upscaled.DvDRip.Ac-3.6.Ch.[M-Subs].HeartLessS.mkv.005.html
    http://lumfile.com/oc2uhk9cn23t/Yeh.Jo.Mohabbat.Hai.[2012].x264.720p.Upscaled.DvDRip.Ac-3.6.Ch.[M-Subs].HeartLessS.mkv.006.html


    Code:
    http://extabit.com/file/2ducbaazh8j7b/Yeh.Jo.Mohabbat.Hai.[2012].x264.720p.Upscaled.DvDRip.Ac-3.6.Ch.[M-Subs].HeartLessS.mkv.001
    http://extabit.com/file/2ducbaazh8jbr/Yeh.Jo.Mohabbat.Hai.[2012].x264.720p.Upscaled.DvDRip.Ac-3.6.Ch.[M-Subs].HeartLessS.mkv.002
    http://extabit.com/file/2ducbaazh8jbb/Yeh.Jo.Mohabbat.Hai.[2012].x264.720p.Upscaled.DvDRip.Ac-3.6.Ch.[M-Subs].HeartLessS.mkv.003
    http://extabit.com/file/2ducbaazh8j6v/Yeh.Jo.Mohabbat.Hai.[2012].x264.720p.Upscaled.DvDRip.Ac-3.6.Ch.[M-Subs].HeartLessS.mkv.004
    http://extabit.com/file/2ducbaazh8j6f/Yeh.Jo.Mohabbat.Hai.[2012].x264.720p.Upscaled.DvDRip.Ac-3.6.Ch.[M-Subs].HeartLessS.mkv.005
    http://extabit.com/file/2ducbaazh8g47/Yeh.Jo.Mohabbat.Hai.[2012].x264.720p.Upscaled.DvDRip.Ac-3.6.Ch.[M-Subs].HeartLessS.mkv.006

 

 

Posting Permissions

  • You may not post new threads
  • You may not post replies
  • You may not post attachments
  • You may not edit your posts
  •