Results 1 to 1 of 1
  1. #1
    dR Rockers www.desirulez.net
    Join Date
    Aug 2011
    Posts
    5,859

    Cool Diary of a Butterfly (2012) 720p - HDRip - x264 - AC3 [DDR-ExclusivE]

    Follow us on Social Media













    Diary of a Butterfly (2012)
    **720p High Definition**

    Code:
    Complete name                            : 720phd-doab-ddr.mkv
    Source                     : DDR
    Ripper                     : th3obr0
    
    Format                                   : Matroska
    Format version                           : Version 2
    File size                                : 2.18 GiB
    Duration                                 : 1h 37mn
    Overall bit rate                         : 3 206 Kbps
    Encoded date                             : UTC 2012-12-23 22:22:14
    Writing application                      : mkvmerge v5.7.0 ('The Whirlwind') built on Jul  8 2012 20:08:51
    Writing library                          : libebml v1.2.3 + libmatroska v1.3.0
    
    Video
    ID                                       : 1
    Format                                   : AVC
    Format/Info                              : Advanced Video Codec
    Format profile                           : [email protected]
    Format settings, CABAC                   : Yes
    Format settings, ReFrames                : 5 frames
    Codec ID                                 : V_MPEG4/ISO/AVC
    Duration                                 : 1h 37mn
    Bit rate                                 : 2 980 Kbps
    Width                                    : 1 280 pixels
    Height                                   : 544 pixels
    Display aspect ratio                     : 2.35:1
    Frame rate                               : 24.000 fps
    Color space                              : YUV
    Chroma subsampling                       : 4:2:0
    Bit depth                                : 8 bits
    Scan type                                : Progressive
    Bits/(Pixel*Frame)                       : 0.178
    Stream size                              : 1.98 GiB (91%)
    Title                                    : DoB 720p [DDR]
    Writing library                          : x264 core 125 r2200 999b753
    Language                                 : English
    Default                                  : Yes
    Forced                                   : No
    
    Audio
    ID                                       : 2
    Format                                   : AC-3
    Format/Info                              : Audio Coding 3
    Mode extension                           : CM (complete main)
    Format settings, Endianness              : Big
    Codec ID                                 : A_AC3
    Duration                                 : 1h 37mn
    Bit rate mode                            : Constant
    Bit rate                                 : 224 Kbps
    Channel(s)                               : 2 channels
    Channel positions                        : Front: L R
    Sampling rate                            : 44.1 KHz
    Bit depth                                : 16 bits
    Compression mode                         : Lossy
    Stream size                              : 156 MiB (7%)
    Title                                    : Hindi [DDR]
    Language                                 : Hindi
    Default                                  : Yes
    Forced                                   : No















    SINGLE DIRECT FAST LINKS
    Code:
    http://lumfile.com/8r4rc8g44r8j/Diary.of.a.Butterfly.(2012).720p.HDRip.x264.AC3.[DDR].mkv.html


    Code:
    http://extabit.com/file/2ducbaaqulbri/Diary.of.a.Butterfly.(2012).720p.HDRip.x264.AC3.[DDR].mkv


    700MB LINKS


    Code:
    http://lumfile.com/iy7lvykxxir7/Diary.of.a.Butterfly.(2012).720p.HDRip.x264.AC3.[DDR].mkv.001.html
    http://lumfile.com/x00kxbx5cyuv/Diary.of.a.Butterfly.(2012).720p.HDRip.x264.AC3.[DDR].mkv.002.html
    http://lumfile.com/2v6wi8823sxr/Diary.of.a.Butterfly.(2012).720p.HDRip.x264.AC3.[DDR].mkv.003.html
    http://lumfile.com/gyk41gf5wzd7/Diary.of.a.Butterfly.(2012).720p.HDRip.x264.AC3.[DDR].mkv.004.html
    http://lumfile.com/8o7hqwv611ky/Diary.of.a.Butterfly.(2012).720p.HDRip.x264.AC3.[DDR].mkv.004.html


    Code:
    http://extabit.com/file/2ducbaaquk6pa/Diary.of.a.Butterfly.(2012).720p.HDRip.x264.AC3.[DDR].mkv.001
    http://extabit.com/file/2ducbaaquk9qm/Diary.of.a.Butterfly.(2012).720p.HDRip.x264.AC3.[DDR].mkv.002
    http://extabit.com/file/2ducbaaquk9r2/Diary.of.a.Butterfly.(2012).720p.HDRip.x264.AC3.[DDR].mkv.003
    http://extabit.com/file/2ducbaaqukg26/Diary.of.a.Butterfly.(2012).720p.HDRip.x264.AC3.[DDR].mkv.004

 

 

Posting Permissions

  • You may not post new threads
  • You may not post replies
  • You may not post attachments
  • You may not edit your posts
  •