Results 1 to 2 of 2
  1. #1
    Super Member www.desirulez.net
    Join Date
    Jan 2012
    Posts
    408

    Thumbs up Dabangg 2 (2012) - 800MB - Pre-DVDr- DivX5 - Mp3 - NyAD -

    Follow us on Social Media






    DaBaNg - 2 (2012) 1CD - Pre-DVDScr- DivX5 - Mp3 - NyAD



    Code:
    Format                                   : AVI
    Format/Info                              : Audio Video Interleave
    File size                                : 843 MiB
    Duration                                 : 1h 53mn
    Overall bit rate                         : 1 042 Kbps
    
    Video
    ID                                       : 0
    Format                                   : MPEG-4 Visual
    Format profile                           : [email protected]
    Format settings, BVOP                    : No
    Format settings, QPel                    : No
    Format settings, GMC                     : No warppoints
    Format settings, Matrix                  : Default (H.263)
    Codec ID                                 : DX50
    Codec ID/Hint                            : DivX 5
    Duration                                 : 1h 53mn
    Bit rate                                 : 900 Kbps
    Width                                    : 720 pixels
    Height                                   : 540 pixels
    Display aspect ratio                     : 4:3
    Frame rate                               : 29.970 fps
    Color space                              : YUV
    Chroma subsampling                       : 4:2:0
    Bit depth                                : 8 bits
    Scan type                                : Progressive
    Compression mode                         : Lossy
    Bits/(Pixel*Frame)                       : 0.077
    Stream size                              : 728 MiB (86%)
    Writing library                          : DigiArty AV Encoder Core
    
    Audio
    ID                                       : 1
    Format                                   : MPEG Audio
    Format version                           : Version 1
    Format profile                           : Layer 3
    Codec ID                                 : 55
    Codec ID/Hint                            : MP3
    Duration                                 : 1h 53mn
    Bit rate mode                            : Constant
    Bit rate                                 : 128 Kbps
    Channel(s)                               : 2 channels
    Sampling rate                            : 48.0 KHz
    Compression mode                         : Lossy
    Stream size                              : 104 MiB (12%)
    Alignment                                : Aligned on interleaves
    Interleave, duration                     : 24 ms (0.72 video frame)
    Interleave, preload duration             : 504 ms
    Writing library                          : LAME3.98.4
    Screens


















    Code:
    http://filevice.com/qmaxfan8wonw/DVD-Title1.avi
    
    http://turbobit.net/50nz19edskuo.html
    
    http://uploadblast.com/6z70w84eowb8
    Code:
    http://filegag.com/4ujmnop14v3b
    http://filegag.com/hvt19m9ey9xt
    http://filegag.com/avbk7r5yw6vp
    http://filegag.com/ld28943n4w5u

  2. #2
    { dR H3R0 >>> MK <<< } www.desirulez.net
    Join Date
    Dec 2012
    Location
    Pakistan
    Posts
    958

    Default

    Thanks Dear For Uploading Dabbang 2

 

 

Posting Permissions

  • You may not post new threads
  • You may not post replies
  • You may not post attachments
  • You may not edit your posts
  •