Results 1 to 1 of 1
  1. #1
    Hot Member www.desirulez.net
    Join Date
    Sep 2009
    Posts
    1,215

    Thumbs up 'Dabangg 2'-2012 (Audio Cleaned) - SCam Rip - MPEG-PS

    Follow us on Social Media










    Code:
    General
    Format : MPEG-PS
    File size : 542 MiB
    Duration : 1h 44mn
    Overall bit rate mode : Variable
    Overall bit rate : 722 Kbps
    Video #224
    ID : 224 (0xE0)
    Format : MPEG Video
    Format version : Version 2
    Format profile : [email protected]
    Format settings, BVOP : Yes
    Format settings, Matrix : Default
    Format settings, GOP : M=3, N=12
    Duration : 1h 44mn
    Bit rate mode : Variable
    Bit rate : 580 Kbps
    Maximum bit rate : 2 519 Mbps
    Width : 352 pixels
    Height : 288 pixels
    Display aspect ratio : 4:3
    Frame rate : 25.000 fps
    Standard : PAL
    Color space : YUV
    Chroma subsampling : 4:2:0
    Bit depth : 8 bits
    Scan type : Progressive
    Compression mode : Lossy
    Bits/(Pixel*Frame) : 0.229
    Stream size : 435 MiB (80%)
    Code:
    Audio #192
    ID : 192 (0xC0)
    Format : MPEG Audio
    Format version : Version 1
    Format profile : Layer 2
    Duration : 1h 44mn
    Bit rate mode : Constant
    Bit rate : 128 Kbps
    Channel(s) : 2 channels
    Sampling rate : 44.1 KHz
    Compression mode : Lossy
    Stream size : 96.1 MiB (18%)


    Code:
    http://megaload.it/6qojmmtvu6jd
    
    http://filevice.com/xmoeloyl0qga/'Dabangg 2'-2012 (Audio Cleaned) - SCam Rip - MPEG-PS.MPG





 

 

Posting Permissions

  • You may not post new threads
  • You may not post replies
  • You may not post attachments
  • You may not edit your posts
  •