Results 1 to 2 of 2
  1. #1
    dR Rockers www.desirulez.net
    Join Date
    Aug 2011
    Posts
    5,859

    Cool Aiyyaa (2012) - x264 - 720p - Upscaled - DvDRip - Ac-3 6.Ch - Subs - HeartLessS

    Follow us on Social Media














    Aiyyaa [2012] x264 720p Upscaled DvDRip Ac-3 6.Ch M-Subs by HeartLessS

    Code:
    Source                                   : DVD9 UNTCH
    Ripper                                   : HearTLessS
    Complete name                            : Aiyyaa [2012] x264 720p Upscaled DvDRip Ac-3 6.Ch M-Subs by HeartLessS.mkv
    Format                                   : Matroska
    Format version                           : Version 2
    File size                                : 4.34 GiB
    Duration                                 : 2h 32mn
    Overall bit rate mode                    : Variable
    Overall bit rate                         : 4 075 Kbps
    Encoded date                             : UTC 2012-12-15 02:09:49
    Writing application                      : mkvmerge v5.6.0 ('Kenya Kane') built on May 27 2012 16:44:04
    Writing library                          : libebml v1.2.3 + libmatroska v1.3.0
    
    Video
    ID                                       : 1
    Format                                   : AVC
    Format/Info                              : Advanced Video Codec
    Format profile                           : [email protected]
    Format settings, CABAC                   : Yes
    Format settings, ReFrames                : 5 frames
    Codec ID                                 : V_MPEG4/ISO/AVC
    Duration                                 : 2h 32mn
    Bit rate mode                            : Variable
    Bit rate                                 : 3 687 Kbps
    Maximum bit rate                         : 50.0 Mbps
    Width                                    : 1 280 pixels
    Height                                   : 544 pixels
    Display aspect ratio                     : 2.35:1
    Frame rate mode                          : Constant
    Frame rate                               : 29.970 fps
    Color space                              : YUV
    Chroma subsampling                       : 4:2:0
    Bit depth                                : 8 bits
    Scan type                                : MBAFF
    Bits/(Pixel*Frame)                       : 0.177
    Stream size                              : 3.84 GiB (89%)
    Writing library                          : x264 core 125 r2200 999b753
    Encoding settings                        : cabac=1 / ref=5 / deblock=1:-1:-1 / analyse=0x3:0x113 / me=hex / subme=7 / psy=1 / psy_rd=1.00:0.00 / mixed_ref=1 / me_range=16 / chroma_me=1 / trellis=1 / 8x8dct=1 / cqm=0 / deadzone=21,11 / fast_pskip=0 / chroma_qp_offset=-2 / threads=3 / lookahead_threads=1 / sliced_threads=0 / nr=0 / decimate=1 / interlaced=tff / bluray_compat=0 / constrained_intra=0 / bframes=3 / b_pyramid=2 / b_adapt=1 / b_bias=0 / direct=1 / weightb=1 / open_gop=0 / weightp=0 / keyint=300 / keyint_min=29 / scenecut=40 / intra_refresh=0 / rc_lookahead=40 / rc=2pass / mbtree=1 / bitrate=3687 / ratetol=1.0 / qcomp=0.60 / qpmin=0 / qpmax=69 / qpstep=4 / cplxblur=20.0 / qblur=0.5 / vbv_maxrate=50000 / vbv_bufsize=40000 / nal_hrd=vbr / ip_ratio=1.40 / aq=1:1.00
    Language                                 : English
    Default                                  : Yes
    Forced                                   : No
    
    Audio
    ID                                       : 2
    Format                                   : AC-3
    Format/Info                              : Audio Coding 3
    Mode extension                           : CM (complete main)
    Format settings, Endianness              : Big
    Codec ID                                 : A_AC3
    Duration                                 : 2h 32mn
    Bit rate mode                            : Constant
    Bit rate                                 : 384 Kbps
    Channel(s)                               : 6 channels
    Channel positions                        : Front: L C R, Side: L R, LFE
    Sampling rate                            : 48.0 KHz
    Bit depth                                : 16 bits
    Compression mode                         : Lossy
    Stream size                              : 418 MiB (9%)
    Title                                    : HeartLessS
    Language                                 : Hindi
    Default                                  : Yes
    Forced                                   : No
    
    Text #1
    ID                                       : 3
    Format                                   : VobSub
    Muxing mode                              : zlib
    Codec ID                                 : S_VOBSUB
    Codec ID/Info                            : The same subtitle format used on DVDs
    Title                                    : HeartLessS
    Language                                 : English
    Default                                  : Yes
    Forced                                   : No
    
    Text #2
    ID                                       : 4
    Format                                   : VobSub
    Muxing mode                              : zlib
    Codec ID                                 : S_VOBSUB
    Codec ID/Info                            : The same subtitle format used on DVDs
    Title                                    : HeartLessS
    Language                                 : Arabic
    Default                                  : No
    Forced                                   : No
    
    SAMPLE                                   : Included













    SINGLE DIRECT FAST LINKS

    Code:
    http://lumfile.com/cgpl5egphbrc/Aiyyaa.[2012].x264.720p.Upscaled.DvDRip.Ac-3.6.Ch.M-Sub.HeartLessS.mkv.html
    Code:
    http://extabit.com/file/2ducbbtm6nhs8/Aiyyaa.[2012].x264.720p.Upscaled.DvDRip.Ac-3.6.Ch.M-Sub.HeartLessS.mkv

    1GB LINKS



    Code:
    http://lumfile.com/a7zgercyhk53/Aiyyaa.[2012].x264.720p.Upscaled.DvDRip.Ac-3.6.Ch.M-Sub.HeartLessS.mkv.001.html
    http://lumfile.com/h8pon0zmtcee/Aiyyaa.[2012].x264.720p.Upscaled.DvDRip.Ac-3.6.Ch.M-Sub.HeartLessS.mkv.002.html
    http://lumfile.com/ofct37pgdza9/Aiyyaa.[2012].x264.720p.Upscaled.DvDRip.Ac-3.6.Ch.M-Sub.HeartLessS.mkv.003.html
    http://lumfile.com/psd7zmjgimtf/Aiyyaa.[2012].x264.720p.Upscaled.DvDRip.Ac-3.6.Ch.M-Sub.HeartLessS.mkv.004.html
    http://lumfile.com/du6xnhskvbwj/Aiyyaa.[2012].x264.720p.Upscaled.DvDRip.Ac-3.6.Ch.M-Sub.HeartLessS.mkv.005.html

    Code:
    http://extabit.com/file/2ducbbtm6nue0/Aiyyaa.[2012].x264.720p.Upscaled.DvDRip.Ac-3.6.Ch.M-Sub.HeartLessS.mkv.001
    http://extabit.com/file/2ducbbtm6nudk/Aiyyaa.[2012].x264.720p.Upscaled.DvDRip.Ac-3.6.Ch.M-Sub.HeartLessS.mkv.002
    http://extabit.com/file/2ducbbtm6nug8/Aiyyaa.[2012].x264.720p.Upscaled.DvDRip.Ac-3.6.Ch.M-Sub.HeartLessS.mkv.003
    http://extabit.com/file/2ducbbtm6nugo/Aiyyaa.[2012].x264.720p.Upscaled.DvDRip.Ac-3.6.Ch.M-Sub.HeartLessS.mkv.004
    http://extabit.com/file/2ducbbtm7aky0/Aiyyaa.[2012].x264.720p.Upscaled.DvDRip.Ac-3.6.Ch.M-Sub.HeartLessS.mkv.005

  2. #2
    { dR H3R0 >>> MK <<< } www.desirulez.net
    Join Date
    Dec 2012
    Location
    Pakistan
    Posts
    958

    Default

    Thanks For Uploading this Movie

 

 

Posting Permissions

  • You may not post new threads
  • You may not post replies
  • You may not post attachments
  • You may not edit your posts
  •