Results 1 to 1 of 1
  1. #1

    Thumbs up Gattu (2011) | 720p | DVDRip | x264

    Follow us on Social Media





    Gattu (2011) | 720p | DVDRip | x264 | 1.2 GB

















    Rip Information

    Format : Matroska
    Format version : Version 2
    File size : 1.17 GiB
    Duration : 1h 17mn
    Overall bit rate : 2 155 Kbps
    Movie name : Gattu (2011)[email protected] [EXD Exclusive]


    Video

    Format : AVC
    Format/Info : Advanced Video Codec
    Format profile : [email protected]
    Format settings, CABAC : Yes
    Format settings, ReFrames : 4 frames
    Muxing mode : Header stripping
    Codec ID : V_MPEG4/ISO/AVC
    Duration : 1h 17mn
    Bit rate : 1 772 Kbps
    Width : 1 280 pixels
    Height : 544 pixels
    Display aspect ratio : 2.35:1
    Frame rate : 23.976 fps
    Color space : YUV
    Chroma subsampling : 4:2:0
    Bit depth : 8 bits
    Scan type : Progressive
    Bits/(Pixel*Frame) : 0.106
    Stream size : 960 MiB (80%)
    Title : [email protected]
    Writing library : x264 core 125 r2200 999b753


    Audio

    Format : AC-3
    Format/Info : Audio Coding 3
    Mode extension : CM (complete main)
    Format settings, Endianness : Big
    Muxing mode : Header stripping
    Codec ID : A_AC3
    Duration : 1h 17mn
    Bit rate mode : Constant
    Bit rate : 384 Kbps
    Channel(s) : 6 channels
    Channel positions : Front: L C R, Side: L R, LFE
    Sampling rate : 48.0 KHz
    Bit depth : 16 bits
    Compression mode : Lossy
    Stream size : 213 MiB (18%)
    Title : [email protected]
    Language : Hindi


    Resumable Download:
    Code:
    http://filevice.com/nyuiremmkvpx/Gatu.11.720p.DVD.x264.6Ch.EXD.mkv.001
    http://filevice.com/y5ndy8av5t7a/Gatu.11.720p.DVD.x264.6Ch.EXD.mkv.002
    Use HJ-Split To Join Parts.


 

 

Posting Permissions

  • You may not post new threads
  • You may not post replies
  • You may not post attachments
  • You may not edit your posts
  •