Results 1 to 1 of 1
  1. #1

    Default Gattu (2011)-DVDRip - XviD - 1CDRip -By [email protected] [ExD ExclusivE]

    Follow us on Social Media





    Gattu (2011)-DVDRip - XviD - 1CDRip -By [email protected] [ExD ExclusivE]
















    Code:
    Rip Information
    
    Format                                   : AVI
    Format/Info                              : Audio Video Interleave
    File size                                : 700 MiB
    Duration                                 : 1h 17mn
    Overall bit rate                         : 1 261 Kbps
    
    
    Video
    
    Format                                   : MPEG-4 Visual
    Format profile                           : Advanced [email protected]
    Format settings, BVOP                    : 3
    Format settings, QPel                    : No
    Format settings, GMC                     : No warppoints
    Format settings, Matrix                  : Default (MPEG)
    Codec ID                                 : XVID
    Codec ID/Hint                            : XviD
    Duration                                 : 1h 17mn
    Bit rate                                 : 1 125 Kbps
    Width                                    : 688 pixels
    Height                                   : 288 pixels
    Display aspect ratio                     : 2.40:1
    Frame rate                               : 23.976 fps
    Color space                              : YUV
    Chroma subsampling                       : 4:2:0
    Bit depth                                : 8 bits
    Scan type                                : Progressive
    Compression mode                         : Lossy
    Bits/(Pixel*Frame)                       : 0.237
    Stream size                              : 625 MiB (89%)
    Writing library                          : XviD 1.2.1 (UTC 2008-12-04)
    
    
    Audio
    
    Format                                   : AC-3
    Format/Info                              : Audio Coding 3
    Mode extension                           : CM (complete main)
    Format settings, Endianness              : Big
    Codec ID                                 : 2000
    Duration                                 : 1h 17mn
    Bit rate mode                            : Constant
    Bit rate                                 : 128 Kbps
    Channel(s)                               : 6 channels
    Channel positions                        : Front: L C R, Side: L R, LFE
    Sampling rate                            : 48.0 KHz
    Bit depth                                : 16 bits
    Compression mode                         : Lossy
    Stream size                              : 71.1 MiB (10%)
    Alignment                                : Aligned on interleaves
    Interleave, duration                     : 64 ms (1.53 video frames)
    Interleave, preload duration             : 192 ms
    Title                                    : VTS_13_1 T80 3_2ch 448Kbps DELAY 0ms_new
    Code:
    Sample
    http://uploadblast.com/l0mk2oq6nt5y
    Code:
    http://uploadblast.com/cwiq01djx7eo
    http://uploadblast.com/72wfsfxgi04g
    OR
    http://gbmeister.com/dhg2wl43w9ez/Gtu.11.DVD.Xvi.1CD.ExD.avi.html
    http://gbmeister.com/tmonx6ea17jk/Gtu.11.DVD.Xvi.1CD.ExD.srt.html
    OR
    http://ul.to/97u3n4u6
    http://ul.to/qr51i3ym



 

 

Posting Permissions

  • You may not post new threads
  • You may not post replies
  • You may not post attachments
  • You may not edit your posts
  •