Results 1 to 1 of 1
  1. #1
    dR Contributor www.desirulez.net
    Join Date
    Jul 2012
    Posts
    795

    Cool WWE.The.Legends.Of.Wrestling.Hardcore.12.15.2012.SDTV.x264

    Follow us on Social Media





    WWE The Legends Of Wrestling Hardcore 2012.12.15









    SDTV.x264










    Code:
    Provider: WWE Classics On Demand  
    Date: 12/15/2012 
    Category: Legends 
    Title: WWE The Legends of Wrestling: Hardcore  
    Rating: TV-14 
     
    Synopsis:  
    The Legends of Wrestling: Jim Ross, Pat Patterson, Michael Hayes and   'The Road Dogg' Brian James join host Gene Okerlund for a   no-holds-barred roundtable discussion on the "Evolution Of Hardcore".  
     
    Hashtag: #wweclassics 
     
    Chapter skips: 19 
     
    Mediainfo:  
    General 
    Complete name                            : WWE.The.Legends.Of.Wrestling.Hardcore.12.15.2012.SDTV.x264.mp4 
    Format                                   : MPEG-4 
    Format profile                           : Base Media / Version 2 
    Codec ID                                 : mp42 
    File size                                : 884 MiB 
    Duration                                 : 1h 14mn 
    Overall bit rate mode                    : Variable 
    Overall bit rate                         : 1 663 Kbps 
    Encoded date                             : UTC 2012-12-15 15:39:44 
    Tagged date                              : UTC 2012-12-15 16:28:29 
    Writing application                      : HandBrake 0.9.8 2012071700 
     
    Video 
    ID                                       : 1 
    Format                                   : AVC 
    Format/Info                              : Advanced Video Codec 
    Format profile                           : [email protected] 
    Format settings, CABAC                   : No 
    Format settings, ReFrames                : 2 frames 
    Codec ID                                 : avc1 
    Codec ID/Info                            : Advanced Video Coding 
    Duration                                 : 1h 14mn 
    Bit rate mode                            : Variable 
    Bit rate                                 : 1 500 Kbps (Two-pass encoding) 
    Width                                    : 640 pixels 
    Height                                   : 480 pixels 
    Display aspect ratio                     : 4:3 
    Frame rate mode                          : Constant 
    Frame rate                               : 29.970 fps 
    Color space                              : YUV 
    Chroma subsampling                       : 4:2:0 
    Bit depth                                : 8 bits 
    Scan type                                : Progressive 
    Bits/(Pixel*Frame)                       : 0.163 
    Stream size                              : 797 MiB (90%) 
    Writing library                          : x264 core 120 
    Encoding settings                        : cabac=0 / ref=2 /   deblock=1:0:0 / analyse=0x1:0x111 / me=umh / subme=9 / psy=1 /   psy_rd=1.00:0.00 / mixed_ref=1 / me_range=18 / chroma_me=1 / trellis=0 /   8x8dct=0 / cqm=0 / deadzone=21,11 / fast_pskip=1 / chroma_qp_offset=-2  /  threads=6 / sliced_threads=0 / nr=0 / decimate=1 / interlaced=0 /   bluray_compat=0 / constrained_intra=0 / bframes=0 / weightp=0 /   keyint=300 / keyint_min=30 / scenecut=40 / intra_refresh=0 /   rc_lookahead=40 / rc=2pass / mbtree=1 / bitrate=1500 / ratetol=1.0 /   qcomp=0.60 / qpmin=3 / qpmax=69 / qpstep=4 / cplxblur=20.0 / qblur=0.5 /   ip_ratio=1.40 / aq=1:1.00 
    Encoded date                             : UTC 2012-12-15 15:39:44 
    Tagged date                              : UTC 2012-12-15 16:28:24 
    Color primaries                          : BT.601 NTSC 
    Transfer characteristics                 : BT.709 
    Matrix coefficients                      : BT.601 
     
    Audio 
    ID                                       : 2 
    Format                                   : AAC 
    Format/Info                              : Advanced Audio Codec 
    Format profile                           : LC 
    Codec ID                                 : 40 
    Duration                                 : 1h 14mn 
    Bit rate mode                            : Variable 
    Bit rate                                 : 160 Kbps 
    Maximum bit rate                         : 205 Kbps 
    Channel(s)                               : 2 channels 
    Channel positions                        : Front: L R 
    Sampling rate                            : 48.0 KHz 
    Compression mode                         : Lossy 
    Stream size                              : 85.0 MiB (10%) 
    Encoded date                             : UTC 2012-12-15 15:39:44 
    Tagged date                              : UTC 2012-12-15 16:28:23



    One Link :

    Uploaded.To
    Code:
    http://uploaded.net/file/l6zzig4t/WWE.The.Legends.Of.Wrestling.Hardcore.12.15.2012.SDTV.x264.mp4
    ShareFlare
    Code:
    http://shareflare.net/download/73740.713f0cf6cf4c6f9acee61edf09f7/WWE.The.Legends.Of.Wrestling.Hardcore.12.15.2012.SDTV.x264.mp4.html
    TurboBit
    Code:
    http://turbobit.net/n34rrxs7t5je/WWE.The.Legends.Of.Wrestling.Hardcore.12.15.2012.SDTV.x264.mp4.html


 

 

Posting Permissions

  • You may not post new threads
  • You may not post replies
  • You may not post attachments
  • You may not edit your posts
  •