Results 1 to 1 of 1
  1. #1
    dR Rockers www.desirulez.net
    Join Date
    Aug 2011
    Posts
    5,859

    Cool Khiladi 786 (2012) - 700MB - 1CDRip - TeleSync - MP3 - [Team SIMHA]

    Follow us on Social Media












    Khiladi 786 (2012) - TeleSync - 1CD NO WATERMARK - MP3 - {Team SIMHA}

    Code:
    Video
    ID                                       : 0
    Format                                   : MPEG-4 Visual
    Format profile                           : Advanced [email protected]
    Format settings, BVOP                    : 2
    Format settings, QPel                    : Yes
    Format settings, GMC                     : No warppoints
    Format settings, Matrix                  : Default (H.263)
    Codec ID                                 : XVID
    Codec ID/Hint                            : XviD
    Duration                                 : 2h 1mn
    Bit rate                                 : 695 Kbps
    Width                                    : 640 pixels
    Height                                   : 272 pixels
    Display aspect ratio                     : 2.35:1
    Frame rate                               : 25.000 fps
    Color space                              : YUV
    Chroma subsampling                       : 4:2:0
    Bit depth                                : 8 bits
    Scan type                                : Progressive
    Compression mode                         : Lossy
    Bits/(Pixel*Frame)                       : 0.160
    Stream size                              : 605 MiB (85%)
    Writing library                          : XviD 1.2.1 (UTC 2008-12-04)
    
    Audio
    ID                                       : 1
    Format                                   : MPEG Audio
    Format version                           : Version 1
    Format profile                           : Layer 3
    Mode                                     : Joint stereo
    Mode extension                           : MS Stereo
    Codec ID                                 : 55
    Codec ID/Hint                            : MP3
    Duration                                 : 2h 1mn
    Bit rate mode                            : Constant
    Bit rate                                 : 112 Kbps
    Channel(s)                               : 2 channels
    Sampling rate                            : 48.0 KHz
    Compression mode                         : Lossy
    Stream size                              : 97.4 MiB (14%)
    Alignment                                : Aligned on interleaves
    Interleave, duration                     : 24 ms (0.60 video frame)
    Interleave, preload duration             : 192 ms
    Title                                    : Khiladi 786 (Audio Cleaned)


































    SINGLE DIRECT FAST LINKS

    Code:
    http://lumfile.com/4woelzceg2er/Khiladi.786.(2012).TeleSync.1CD.NO.WATERMARK.MP3.{Team.SIMHA}.avi.html

    Code:
    http://extabit.com/file/2ducb5nhcl82d/Khiladi.786.(2012).TeleSync.1CD.NO.WATERMARK.MP3.{Team.SIMHA}.avi
    Code:
    http://ryushare.com/4d65e347258a/Khiladi.786.(2012).TeleSync.1CD.NO.WATERMARK.MP3.{Team.SIMHA}.avi

 

 

Posting Permissions

  • You may not post new threads
  • You may not post replies
  • You may not post attachments
  • You may not edit your posts
  •