Results 1 to 1 of 1
  1. #1
    dR Contributor www.desirulez.net
    Join Date
    Mar 2010
    Posts
    2,245

    Default Khiladi 786 (2012) (Hindi) (Audio Cleaned) - 1CD -SCAM Rip - [Xvid - MP3] [DDD]

    Follow us on Social Media








    Khiladi 786 (2012) (Hindi) (Audio Cleaned) - 1CD -SCAM Rip - [Xvid - MP3] [DDD]








    General
    Format : AVI
    Format/Info : Audio Video Interleave
    File size : 692 MiB
    Duration : 2h 1mn
    Overall bit rate : 800 Kbps
    Video #0
    ID : 0
    Format : MPEG-4 Visual
    Format profile : Advanced [email protected]
    Format settings, BVOP : 2
    Format settings, QPel : No
    Format settings, GMC : No warppoints
    Format settings, Matrix : Default (H.263)
    Codec ID : XVID
    Codec ID/Hint : XviD
    Duration : 2h 1mn
    Bit rate : 697 Kbps
    Width : 640 pixels
    Height : 272 pixels
    Display aspect ratio : 2.35:1
    Frame rate : 29.970 fps
    Color space : YUV
    Chroma subsampling : 4:2:0
    Bit depth : 8 bits
    Scan type : Progressive
    Compression mode : Lossy
    Bits/(Pixel*Frame) : 0.134
    Stream size : 603 MiB (87%)

    Audio #1
    ID : 1
    Format : MPEG Audio
    Format version : Version 1
    Format profile : Layer 3
    Mode : Joint stereo
    Mode extension : MS Stereo
    Codec ID : 55
    Codec ID/Hint : MP3
    Duration : 2h 1mn
    Bit rate mode : Constant
    Bit rate : 96.0 Kbps
    Channel(s) : 2 channels
    Sampling rate : 32.0 KHz
    Compression mode : Lossy
    Stream size : 83.1 MiB (12%)






    Download Single Links


    Code:
    http://ul.to/uqgfs31d/'Khiladi 786'-2012 (Audio Cleaned) - 1CD -SCAM Rip - [Xvid - MP3].avi
    
    
    http://extabit.com/file/2edcxer3hku0t/'Khiladi 786'-2012 (Audio Cleaned) - 1CD -SCAM Rip - [Xvid - MP3].avi
    
    
    http://lumfile.com/p4pu4wy9nvje/'Khiladi_786'-2012_(Audio_Cleaned)_-_1CD_-SCAM_Rip_-_[Xvid_-_MP3].avi.html
    
    
    http://rapidgator.net/file/62063856/'Khiladi_786'-2012_(Audio_Cleaned)_-_1CD_-SCAM_Rip_-_[Xvid_-_MP3].avi.html
    
    
    http://ryushare.com/49c290b2e50d/'Khiladi_786'-2012_(Audio_Cleaned)_-_1CD_-SCAM_Rip_-_[Xvid_-_MP3].avi


 

 

Posting Permissions

  • You may not post new threads
  • You may not post replies
  • You may not post attachments
  • You may not edit your posts
  •