Results 1 to 1 of 1
  1. #1
    Super Member www.desirulez.net
    Join Date
    Sep 2012
    Location
    Pakistan
    Posts
    354

    Default Oh My God (2012) 1080p - BluRay - mHD - x264 - DTS 5.1 Ch - ESubs (DUS)

    Follow us on Social Media







    Code:
    Source                                    : ISPKMYK - THANKS 
    Unique ID                                : 179405116329806145131849371273212559179 (0x86F82B2781E43C3DA1D18D440D0D7F4B)
    Complete name                            : C:\Users\user\Downloads\Oh My God (2012) 1080p - BluRay - mHD - x264 - DTS 5.1 Ch - ESubs (DUS)\Oh My God (2012) 1080p - BluRay - mHD - x264 - DTS 5.1 Ch - ESubs (DUS).mkv
    Format                                   : Matroska
    Format version                           : Version 2
    File size                                : 4.10 GiB
    Duration                                 : 2h 9mn
    Overall bit rate mode                    : Variable
    Overall bit rate                         : 4 527 Kbps
    Encoded date                             : UTC 2012-11-27 17:15:54
    Writing application                      : mkvmerge v5.6.0 ('Kenya Kane') built on May 27 2012 16:44:04
    Writing library                          : libebml v1.2.3 + libmatroska v1.3.0
    
    Video
    ID                                       : 1
    Format                                   : AVC
    Format/Info                              : Advanced Video Codec
    Format profile                           : [email protected]
    Format settings, CABAC                   : Yes
    Format settings, ReFrames                : 3 frames
    Codec ID                                 : V_MPEG4/ISO/AVC
    Duration                                 : 2h 9mn
    Bit rate mode                            : Variable
    Bit rate                                 : 3 000 Kbps
    Maximum bit rate                         : 40.0 Mbps
    Width                                    : 1 920 pixels
    Height                                   : 824 pixels
    Display aspect ratio                     : 2.35:1
    Frame rate mode                          : Constant
    Frame rate                               : 24.000 fps
    Color space                              : YUV
    Chroma subsampling                       : 4:2:0
    Bit depth                                : 8 bits
    Scan type                                : Progressive
    Bits/(Pixel*Frame)                       : 0.079
    Stream size                              : 2.65 GiB (65%)
    Writing library                          : x264 core 125 r2200 999b753
    Encoding settings                        : cabac=1 / ref=3 / deblock=1:-1:-1 / analyse=0x3:0x113 / me=hex / subme=7 / psy=1 / psy_rd=1.00:0.15 / mixed_ref=1 / me_range=16 / chroma_me=1 / trellis=1 / 8x8dct=1 / cqm=0 / deadzone=21,11 / fast_pskip=1 / chroma_qp_offset=-3 / threads=3 / lookahead_threads=1 / sliced_threads=0 / slices=4 / nr=0 / decimate=1 / interlaced=0 / bluray_compat=1 / constrained_intra=0 / bframes=3 / b_pyramid=1 / b_adapt=1 / b_bias=0 / direct=1 / weightb=1 / open_gop=1 / weightp=1 / keyint=24 / keyint_min=1 / scenecut=40 / intra_refresh=0 / rc_lookahead=24 / rc=2pass / mbtree=1 / bitrate=3000 / ratetol=1.0 / qcomp=0.60 / qpmin=10 / qpmax=51 / qpstep=4 / cplxblur=20.0 / qblur=0.5 / vbv_maxrate=40000 / vbv_bufsize=30000 / nal_hrd=vbr / ip_ratio=1.40 / aq=1:1.00
    Language                                 : English
    Default                                  : Yes
    Forced                                   : No
    
    Audio
    ID                                       : 2
    Format                                   : DTS
    Format/Info                              : Digital Theater Systems
    Mode                                     : 16
    Format settings, Endianness              : Big
    Codec ID                                 : A_DTS
    Duration                                 : 2h 9mn
    Bit rate mode                            : Constant
    Bit rate                                 : 1 509 Kbps
    Channel(s)                               : 6 channels
    Channel positions                        : Front: L C R, Side: L R, LFE
    Sampling rate                            : 48.0 KHz
    Bit depth                                : 24 bits
    Compression mode                         : Lossy
    Stream size                              : 1.37 GiB (33%)
    Language                                 : Hindi
    Default                                  : Yes
    Forced                                   : No
    
    Text
    ID                                       : 3
    Format                                   : PGS
    Muxing mode                              : zlib
    Codec ID                                 : S_HDMV/PGS
    Codec ID/Info                            : The same subtitle format used on BDs/HD-DVDs
    Language                                 : English
    Default                                  : Yes
    Forced                                   : No











    SINGLE LINKS

    Code:
    http://rapidgator.net/file/62064557/Oh_My_God_(2012)_1080p_-_BluRay_-_mHD_-_x264_-_DTS_5.1_Ch_-_ESubs_(DUS).mkv.html
    Code:
    http://lumfile.com/ctusb03cs7eo/Oh_My_God_(2012)_1080p_-_BluRay_-_mHD_-_x264_-_DTS_5.1_Ch_-_ESubs_(DUS).mkv.html

    DOWNLOAD PARTS

    Code:
    http://rapidgator.net/file/62059442/Oh_My_God_(2012)_1080p_-_BluRay_-_mHD_-_x264_-_DTS_5.1_Ch_-_ESubs_(DUS).mkv.001.html
    http://rapidgator.net/file/62059444/Oh_My_God_(2012)_1080p_-_BluRay_-_mHD_-_x264_-_DTS_5.1_Ch_-_ESubs_(DUS).mkv.002.html
    http://rapidgator.net/file/62059441/Oh_My_God_(2012)_1080p_-_BluRay_-_mHD_-_x264_-_DTS_5.1_Ch_-_ESubs_(DUS).mkv.003.html
    http://rapidgator.net/file/62059447/Oh_My_God_(2012)_1080p_-_BluRay_-_mHD_-_x264_-_DTS_5.1_Ch_-_ESubs_(DUS).mkv.004.html
    http://rapidgator.net/file/62059225/Oh_My_God_(2012)_1080p_-_BluRay_-_mHD_-_x264_-_DTS_5.1_Ch_-_ESubs_(DUS).mkv.005.html

    Code:
    http://lumfile.com/n9m2e4xmz1vg/Oh_My_God_(2012)_1080p_-_BluRay_-_mHD_-_x264_-_DTS_5.1_Ch_-_ESubs_(DUS).mkv.001.html
    http://lumfile.com/8us5ah0kxvdb/Oh_My_God_(2012)_1080p_-_BluRay_-_mHD_-_x264_-_DTS_5.1_Ch_-_ESubs_(DUS).mkv.002.html
    http://lumfile.com/8m6lc2fb0zsc/Oh_My_God_(2012)_1080p_-_BluRay_-_mHD_-_x264_-_DTS_5.1_Ch_-_ESubs_(DUS).mkv.003.html
    http://lumfile.com/og3y3yr9dx5w/Oh_My_God_(2012)_1080p_-_BluRay_-_mHD_-_x264_-_DTS_5.1_Ch_-_ESubs_(DUS).mkv.004.html
    http://lumfile.com/9qh0265m6kr2/Oh_My_God_(2012)_1080p_-_BluRay_-_mHD_-_x264_-_DTS_5.1_Ch_-_ESubs_(DUS).mkv.005.html

 

 

Posting Permissions

  • You may not post new threads
  • You may not post replies
  • You may not post attachments
  • You may not edit your posts
  •