Results 1 to 1 of 1
  1. #1
    Banned www.desirulez.net
    Join Date
    Apr 2011
    Posts
    892

    Cool I am 24 (2012) | DVD RIP| Watch Online / Download *DivX*

    Follow us on Social Media





    Watch I am 24 2012 Hindi Movie Online, Watch I am 24 Hindi Film, Watch I am 24 Movie Online, Cam Rip, DVD Rip, Pre I am 24 Rip, I am 24 SCR Rip, MC I am 24 SCR Rip, I am 24 Rip Watch Online / Download



    I am 24 (2012) | DVD RIP| Watch Online / Download *DivX*




    Download - Multiupload links *HD/DivX Quality*
    Exclusive First on Net


    Some people posts before me and think they are best but when
    movie runtime is measured my runtime is higher always.




    Code:
    Format                                   : MPEG-4
    Format profile                           : Base Media
    Codec ID                                 : isom
    File size                                : 1.93 GiB
    Duration                                 : 2h 37mn
    Overall bit rate                         : 1 754 Kbps
    Encoded date                             : UTC 2012-12-06 06:39:14
    Tagged date                              : UTC 2012-12-06 06:39:14
    
    
    Video
    ID                                       : 2
    Format                                   : AVC
    Format/Info                              : Advanced Video Codec
    Format profile                           : [email protected]
    Format settings, CABAC                   : No
    Format settings, ReFrames                : 1 frame
    Format settings, GOP                     : M=1, N=25
    Muxing mode                              : Container [email protected]
    Codec ID                                 : avc1
    Codec ID/Info                            : Advanced Video Coding
    Duration                                 : 2h 37mn
    Bit rate                                 : 1 571 Kbps
    Width                                    : 852 pixels
    Height                                   : 480 pixels
    Display aspect ratio                     : 16:9
    Frame rate mode                          : Constant
    Frame rate                               : 29.970 fps
    Original frame rate                      : 29.000 fps
    Color space                              : YUV
    Chroma subsampling                       : 4:2:0
    Bit depth                                : 8 bits
    Scan type                                : Progressive
    Bits/(Pixel*Frame)                       : 0.128
    Stream size                              : 1.73 GiB (90%)
    Writing library                          : ointer
    Language                                 : Hindi
    
    
    Audio
    ID                                       : 1
    Format                                   : AAC
    Format/Info                              : Advanced Audio Codec
    Format profile                           : LC
    Codec ID                                 : 40
    Duration                                 : 2h 37mn
    Bit rate mode                            : Constant
    Bit rate                                 : 176 Kbps
    Channel(s)                               : 6 channels
    Channel positions                        : Front: L C R, Side: L R, LFE
    Sampling rate                            : 48.0 KHz
    Compression mode                         : Lossy
    Stream size                              : 198 MiB (10%)
    Language                                 : English











    Last edited by ♠King Of dR♠; 12-08-2012 at 04:14 PM.

 

 

Posting Permissions

  • You may not post new threads
  • You may not post replies
  • You may not post attachments
  • You may not edit your posts
  •