Results 1 to 1 of 1
  1. #1
    dR Rockers www.desirulez.net
    Join Date
    Jun 2011
    Posts
    2,793

    Thumbs up Pinky Moge Wali DVDRip -720p -x264 -AC3 - 6Ch - [email protected] mkv 1.1gb

    Follow us on Social Media








    Format : Matroska
    Format version : Version 2
    File size : 1.10 GiB
    Duration : 2h 14mn
    Overall bit rate : 1 170 Kbps


    Video

    Duration : 2h 14mn
    Bit rate : 1 041 Kbps
    Width : 1 280 pixels
    Height : 566 pixels
    Display aspect ratio : 2.25:1
    Frame rate mode : Constant
    Frame rate : 29.970 fps
    Color space : YUV
    Chroma subsampling : 4:2:0
    Bit depth : 8 bits
    Scan type : Progressive
    Bits/(Pixel*Frame) : 0.048
    Stream size : 978 MiB (87%)
    Title : [email protected]
    Writing library : x264 core 125 r2200 999b753



    Audio

    odec ID : A_AC3
    Duration : 2h 14mn
    Bit rate mode : Constant
    Bit rate : 128 Kbps
    Channel(s) : 6 channels
    Channel positions : Front: L C R, Side: L R, LFE
    Sampling rate : 48.0 KHz
    Bit depth : 16 bits
    Compression mode : Lossy
    Stream size : 123 MiB (11%)
    Title : [email protected]
    Language : Panjabi


















    (Resume Supported for Free Users)

    Code:
    http://www.queenshare.com/s1ddfaf9u49x



 

 

Posting Permissions

  • You may not post new threads
  • You may not post replies
  • You may not post attachments
  • You may not edit your posts
  •