Results 1 to 1 of 1
  1. #1
    dR Rockers www.desirulez.net
    Join Date
    Aug 2011
    Posts
    5,859

    Cool English Vinglish (2012) - 720p - DVDRip - X264 - MSubs - Team Jaffa

    Follow us on Social Media











    Code:
     General Format version                           : Version 2 File size                                : 2.20 GiB Duration                                 : 2h 13mn Overall bit rate                         : 2 351 Kbps Writing application                      : mkvmerge v5.6.0 ('Kenya Kane') Writing library                          : libebml v1.2.3 + libmatroska v1.3.0  Video ID                                       : 1 Format                                   : AVC Format/Info                              : Advanced Video Codec Format profile                           : [email protected] Format settings, CABAC                   : Yes Format settings, ReFrames                : 4 frames Codec ID                                 : V_MPEG4/ISO/AVC Duration                                 : 2h 13mn Bit rate                                 : 2 125 Kbps Width                                    : 1 280 pixels Height                                   : 544 pixels Display aspect ratio                     : 2.35:1 Frame rate mode                          : Constant Frame rate                               : 23.976 fps Color space                              : YUV Chroma subsampling                       : 4:2:0 Bit depth                                : 8 bits Scan type                                : Progressive Bits/(Pixel*Frame)                       : 0.127 Stream size                              : 1.94 GiB (88%) Writing library                          : x264 core 125 r2200 999b753 Language                                 : English Default                                  : Yes Forced                                   : No  Audio ID                                       : 2 Format                                   : AC-3 Format/Info                              : Audio Coding 3 Mode extension                           : CM (complete main) Format settings, Endianness              : Big Codec ID                                 : A_AC3 Duration                                 : 2h 13mn Bit rate mode                            : Constant Bit rate                                 : 224 Kbps Channel(s)                               : 6 channels Channel positions                        : Front: L C R, Side: L R, LFE Sampling rate                            : 48.0 KHz Bit depth                                : 16 bits Compression mode                         : Lossy Stream size                              : 214 MiB (10%) Default                                  : Yes Forced                                   : No































    SINGLE DIRECT FAST LINKS
    Code:
    http://extabit.com/file/2dubsjo5vnizy/English.Vinglish.(2012).DvdRip.X264.MSubs.720P.[Team.Jaffa].mkv


    Code:
    http://ryushare.com/3a4c71bcffe1/English.Vinglish.(2012).DvdRip.X264.MSubs.720P.[Team.Jaffa].mkv



    500MB LINKS


    Code:
    http://extabit.com/file/2dubsjo5vn9fi/English.Vinglish.(2012).DvdRip.X264.MSubs.720P.[Team.Jaffa].mkv.001
    http://extabit.com/file/2dubsjo5vn9ce/English.Vinglish.(2012).DvdRip.X264.MSubs.720P.[Team.Jaffa].mkv.002
    http://extabit.com/file/2dubsjo5vniym/English.Vinglish.(2012).DvdRip.X264.MSubs.720P.[Team.Jaffa].mkv.003
    http://extabit.com/file/2dubsjo5vnj0e/English.Vinglish.(2012).DvdRip.X264.MSubs.720P.[Team.Jaffa].mkv.004
    http://extabit.com/file/2dubsjo5vnixa/English.Vinglish.(2012).DvdRip.X264.MSubs.720P.[Team.Jaffa].mkv.005
    http://extabit.com/file/2dubsjo5vniwe/English.Vinglish.(2012).DvdRip.X264.MSubs.720P.[Team.Jaffa].sub
    http://extabit.com/file/2dubsjo5vnfry/English.Vinglish.(2012).DvdRip.X264.MSubs.720P.[Team.Jaffa].idx

    Code:
    http://ryushare.com/3b3546620fd3/English.Vinglish.(2012).DvdRip.X264.MSubs.720P.[Team.Jaffa].mkv.001
    http://ryushare.com/3a4c71bcffdf/English.Vinglish.(2012).DvdRip.X264.MSubs.720P.[Team.Jaffa].mkv.002
    http://ryushare.com/39639d17f03c/English.Vinglish.(2012).DvdRip.X264.MSubs.720P.[Team.Jaffa].mkv.003
    http://ryushare.com/39639d17f03b/English.Vinglish.(2012).DvdRip.X264.MSubs.720P.[Team.Jaffa].mkv.004
    http://ryushare.com/387ac872e39a/English.Vinglish.(2012).DvdRip.X264.MSubs.720P.[Team.Jaffa].mkv.005
    http://ryushare.com/3b3546620fd2/English.Vinglish.(2012).DvdRip.X264.MSubs.720P.[Team.Jaffa].sub
    http://ryushare.com/3c1e1b07217c/English.Vinglish.(2012).DvdRip.X264.MSubs.720P.[Team.Jaffa].idx

 

 

Posting Permissions

  • You may not post new threads
  • You may not post replies
  • You may not post attachments
  • You may not edit your posts
  •