Results 1 to 1 of 1
  1. #1
    dR Contributor www.desirulez.net
    Join Date
    Jul 2012
    Posts
    795

    Cool WWE Smackdown 2012-11-30 HDTV x264-vasylius

    Follow us on Social Media





    WWE.Friday.Night.Smackdown.2012.11.30







    HDTV x264-vasylius








    Code:
    General  
    Complete name : WWE.Friday.Night.Smackdown.2012.11.30.HDTV.x264-vasylius.mp4  
    Format : MPEG-4  
    Format profile : Base Media / Version 2  
    Codec ID : mp42  
    File size : 988 MiB  
    Duration : 1h 24mn  
    Overall bit rate : 1 628 Kbps  
    Encoded date : UTC 2012-11-30 07:25:20  
    Tagged date : UTC 2012-11-30 08:47:00  
    Writing application : HandBrake 0.9.8 2012071700  
     
    Video  
    ID : 1  
    Format : AVC  
    Format/Info : Advanced Video Codec  
    Format profile : [email protected]  
    Format settings, CABAC : Yes  
    Format settings, ReFrames : 4 frames  
    Codec ID : avc1  
    Codec ID/Info : Advanced Video Coding  
    Duration : 1h 24mn  
    Bit rate mode : Variable  
    Bit rate : 1 460 Kbps  
    Width : 704 pixels  
    Height : 400 pixels  
    Display aspect ratio : 16:9  
    Frame rate mode : Constant  
    Frame rate : 25.000 fps  
    Resolution : 24 bits  
    Colorimetry : 4:2:0  
    Scan type : Progressive  
    Bits/(Pixel*Frame) : 0.207  
    Stream size : 888 MiB (90%)  
    Writing library : x264 core 120  
    Encoding settings : cabac=1 / ref=3 / deblock=1:0:0 / analyse=0x3:0x113 /  me=hex / subme=7 / psy=1 / psy_rd=1.00:0.00 / mixed_ref=1 / me_range=16  / chroma_me=1 / trellis=1 / 8x8dct=1 / cqm=0 / deadzone=21,11 /  fast_pskip=1 / chroma_qp_offset=-2 / threads=6 / sliced_threads=0 / nr=0  / decimate=1 / interlaced=0 / bluray_compat=0 / constrained_intra=0 /  bframes=3 / b_pyramid=2 / b_adapt=2 / b_bias=0 / direct=1 / weightb=1 /  open_gop=0 / weightp=2 / keyint=250 / keyint_min=25 / scenecut=40 /  intra_refresh=0 / rc_lookahead=40 / rc=abr / mbtree=1 / bitrate=1460 /  ratetol=1.0 / qcomp=0.60 / qpmin=3 / qpmax=69 / qpstep=4 / ip_ratio=1.40  / aq=1:1.00  
    Encoded date : UTC 2012-11-30 07:25:21  
    Tagged date : UTC 2012-11-30 08:47:00  
    colour_primaries : BT.709-5, BT.1361, IEC 61966-2-4, SMPTE RP177  
    transfer_characteristics : BT.709-5, BT.1361  
    matrix_coefficients : BT.709-5, BT.1361, IEC 61966-2-4 709, SMPTE RP177  
     
    Audio  
    ID : 2  
    Format : AAC  
    Format/Info : Advanced Audio Codec  
    Format version : Version 4  
    Format profile : LC  
    Format settings, SBR : No  
    Codec ID : 40  
    Duration : 1h 24mn  
    Bit rate mode : Variable  
    Bit rate : 160 Kbps  
    Maximum bit rate : 205 Kbps  
    Channel(s) : 2 channels  
    Channel positions : L R  
    Sampling rate : 48.0 KHz  
    Resolution : 16 bits  
    Stream size : 97.1 MiB (10%)  
    Language : English  
    Encoded date : UTC 2012-11-30 07:25:21  
    Tagged date : UTC 2012-11-30 08:46:59





    One Link :

    Uploaded.To
    Code:
    
    http://uploaded.net/file/lzvn6whp/WWE%20Smackdown%202012-11-30%20HDTV%20x264-vasylius.mp4
    ShareFlare
    Code:
    http://shareflare.net/download/00773.0b480d2d736c738cdd4efb309a32/WWE_Smackdown_2012-11-30_HDTV_x264-vasylius.mp4.html
    TurboBit
    Code:
    
    http://turbobit.net/rk1uanrxgxif/WWE Smackdown 2012-11-30 HDTV x264-vasylius.mp4.html
    ExTabit
    Code:
    http://extabit.com/file/28de82j5h0cc8/WWE Smackdown 2012-11-30 HDTV x264-vasylius.mp4


 

 

Posting Permissions

  • You may not post new threads
  • You may not post replies
  • You may not post attachments
  • You may not edit your posts
  •