Results 1 to 1 of 1
  1. #1
    dR Rockers www.desirulez.net
    Join Date
    Aug 2011
    Posts
    5,859

    Cool 1920 Evil Returns (2012) - 2CD - 1/3PDVDRip - XviD - manipagal

    Follow us on Social Media













    Movie info
    Format : AVI
    Format/Info : Audio Video Interleave
    Format profile : OpenDML
    File size : 1.42 GiB
    Duration : 2h 0mn
    Overall bit rate : 1 681 Kbps
    Writing application : Lavf52.84.0

    Video
    ID : 0
    Format : MPEG-4 Visual
    Codec ID : FMP4
    Duration : 2h 0mn
    Bit rate : 1 537 Kbps
    Width : 704 pixels
    Height : 480 pixels
    Display aspect ratio : 3:2
    Frame rate : 29.970 fps
    Standard : NTSC
    Color space : YUV
    Chroma subsampling : 4:2:0
    Compression mode : Lossy
    Bits/(Pixel*Frame) : 0.152
    Stream size : 1.30 GiB (91%)

    Audio
    ID : 1
    Format : MPEG Audio
    Format version : Version 1
    Format profile : Layer 3
    Mode : Joint stereo
    Mode extension : MS Stereo
    Codec ID : 55
    Codec ID/Hint : MP3
    Duration : 2h 0mn
    Bit rate mode : Constant
    Bit rate : 128 Kbps
    Channel(s) : 2 channels
    Sampling rate : 48.0 KHz
    Compression mode : Lossy
    Stream size : 111 MiB (8%)
    Alignment : Aligned on interleaves
    Interleave, duration : 24 ms (0.72 video frame)


    screen short







    SINGLE DIRECT FAST LINKS


    Code:
    http://extabit.com/file/2dubsj2z1crur/1920 Evil Returns [2012] PDVDRIP-2CD [Audio Cleaned].avi
    Code:
    http://ryushare.com/2f627a00fc94/1920_Evil_Returns_[2012]_PDVDRIP-2CD_[Audio_Cleaned].avi

 

 

Posting Permissions

  • You may not post new threads
  • You may not post replies
  • You may not post attachments
  • You may not edit your posts
  •