Results 1 to 3 of 3
  1. #1
    dR Rockers www.desirulez.net
    Join Date
    Aug 2011
    Posts
    5,859

    Cool Pinky Moge Wali (2012)(Punjabi) - 720p - DVDRip - x264 - 6Ch - ExD Exclusive

    Follow us on Social Media












    Code:
    Rip Information
    
    Format                                   : Matroska
    Format version                           : Version 2
    File size                                : 1.10 GiB
    Duration                                 : 2h 14mn
    Overall bit rate                         : 1 170 Kbps
    Movie name                               : Pinky Moge Wali (2012).720p.DVDRip.x264.Punjabi.6Ch.by [email protected] [ExD Exclusive]
    
    
    
    Video
    
    Codec ID                                 : V_MPEG4/ISO/AVC
    Duration                                 : 2h 14mn
    Bit rate                                 : 1 041 Kbps
    Width                                    : 1 280 pixels
    Height                                   : 566 pixels
    Display aspect ratio                     : 2.25:1
    Frame rate mode                          : Constant
    Frame rate                               : 29.970 fps
    Color space                              : YUV
    Chroma subsampling                       : 4:2:0
    Bit depth                                : 8 bits
    Scan type                                : Progressive
    Bits/(Pixel*Frame)                       : 0.048
    Stream size                              : 978 MiB (87%)
    Title                                    : [email protected]
    Writing library                          : x264 core 125 r2200 999b753
    
    
    
    Audio
    
    odec ID                                 : A_AC3
    Duration                                 : 2h 14mn
    Bit rate mode                            : Constant
    Bit rate                                 : 128 Kbps
    Channel(s)                               : 6 channels
    Channel positions                        : Front: L C R, Side: L R, LFE
    Sampling rate                            : 48.0 KHz
    Bit depth                                : 16 bits
    Compression mode                         : Lossy
    Stream size                              : 123 MiB (11%)
    Title                                    : [email protected]
    Language                                 : Panjabi














    SINGLE DIRECT FAST LINKS


    Code:
    http://extabit.com/file/2dubslfyk2na2/Pinky Moge Wali (2012).720p.DVDRip.x264.Punjabi.6Ch.by [email protected] [ExD Exclusive].mkv

    Code:
    http://ryushare.com/98f0cd1dd80/Pinky_Moge_Wali_(2012).[email protected]_[ExD_Exclusive].mkv

  2. #2
    Member www.desirulez.net
    Join Date
    May 2012
    Location
    Sahiwal , Pakistan
    Posts
    38

    Default

    please upload in ( Rapidshare , Uppit , Hulkshare , Filefactory )
    and please also others punjabi movies in 720p , bluray (if available)

  3. #3
    New Arrivals
    Join Date
    Dec 2012
    Posts
    1

    Default

    thanks

 

 

Posting Permissions

  • You may not post new threads
  • You may not post replies
  • You may not post attachments
  • You may not edit your posts
  •