Results 1 to 1 of 1
  1. #1
    Hot Member www.desirulez.net
    Join Date
    Jul 2012
    Posts
    643

    Default Krrish(2006) - 1080p - BLURAY - X264 - DTS [DDR]

    Follow us on Social Media





    Krrish(2006) - 1080p - BLURAY - X264 - DTS [DDR]



    Code:
    Title:         Krrish-(2006)
    Genre:          Comedy / Action / suspense
    IMDB Link:      http://www.imdb.com/title/tt0432637/
    File size:      7.95 GiB
    Duration:       2h 55mn
    
    Language:       Hindi
    Subtitles:      English
    
    General
    Complete name                    :Krrish-(2006)-1080p-x264[M3GATRON].mkv
    Format                           : Matroska
    File size                        : 7.95 GiB
    Duration                         : 2h 55mn
    Overall bit rate                 : 6 493 Kbps
    Encoded date                     : UTC 2011-08-22 20:00:49
    Writing application              : mkvmerge v4.8.0 ('I Got The...') built on May 24 2011 03:12:58
    Writing library                  : libebml v1.2.0 + libmatroska v1.1.0
    
    Video
    ID                               : 1
    Format                           : AVC
    Format/Info                      : Advanced Video Codec
    Format profile                   : [email protected]
    Format settings, CABAC           : Yes
    Format settings, ReFrames        : 3 frames
    Format settings, GOP             : M=2, N=16
    Codec ID                         : V_MPEG4/ISO/AVC
    Duration                         : 2h 55mn
    Bit rate mode                    : Variable
    Bit rate                         : 4 982 Kbps
    Maximum bit rate                 : 40.0 Mbps
    Width                            : 1 920 pixels
    Height                           : 816 pixels
    Display aspect ratio             : 2.35:1
    Frame rate                       : 24.000 fps
    Color space                      : YUV
    Chroma subsampling               : 4:2:0
    Bit depth                        : 8 bits
    Scan type                        : Progressive
    Bits/(Pixel*Frame)               : 0.132
    Stream size                      : 5.94 GiB (75%)
    Title                            : Krrish DDR
    Writing library                  : x264 core 115 r1995 c1e60b9
    Language                         : English
    
    Audio
    ID                               : 2
    Format                           : DTS
    Format/Info                      : Digital Theater Systems
    Codec ID                         : A_DTS
    Duration                         : 2h 55mn
    Bit rate mode                    : Constant
    Bit rate                           : 1 510 Kbps
    Channel(s)                       : 6 channels
    Channel positions                : Front: L C R, Side: L R, LFE
    Sampling rate                    : 48.0 KHz
    Bit depth                        : 24 bits
    Stream size                      : 1.85 GiB (23%)
    Title                                : Krrish DDR
    Language                         : Hindi





    Code:
    http://lumfile.com/26jem50a8a03/214587KSH215.mkv.part01.rar.html
    http://lumfile.com/aarr4ixc4e9y/214587KSH215.mkv.part02.rar.html
    http://lumfile.com/n94gqjvcdq59/214587KSH215.mkv.part03.rar.html
    http://lumfile.com/jfhwajev6vvr/214587KSH215.mkv.part04.rar.html
    http://lumfile.com/g39w4ipu16um/214587KSH215.mkv.part05.rar.html
    http://lumfile.com/fxvcqzzn2skt/214587KSH215.mkv.part06.rar.html
    http://lumfile.com/0khvyeslvty7/214587KSH215.mkv.part07.rar.html
    http://lumfile.com/heq0bpfcp8h6/214587KSH215.mkv.part08.rar.html
    http://lumfile.com/0m1peemnix4e/214587KSH215.mkv.part09.rar.html
    Code:
    http://extabit.com/file/279wga50zdroy/214587KSH215.mkv.part01.rar
    http://extabit.com/file/279wga50ze17m/214587KSH215.mkv.part02.rar
    http://extabit.com/file/279wga50ze7f6/214587KSH215.mkv.part07.rar
    http://extabit.com/file/279wga50ze7gi/214587KSH215.mkv.part06.rar
    http://extabit.com/file/279wga50ze4fm/214587KSH215.mkv.part04.rar
    http://extabit.com/file/279wga50zcw2q/214587KSH215.mkv.part03.rar
    http://extabit.com/file/279wga50zd5he/214587KSH215.mkv.part05.rar
    http://extabit.com/file/279wga50zd2g2/214587KSH215.mkv.part09.rar
    http://extabit.com/file/279wga50zd5j6/214587KSH215.mkv.part08.rar
    Code:
    http://uploaded.net/file/kxnp7pr7/214587KSH215.mkv.part06.rar
    http://uploaded.net/file/jzmfzzbf/214587KSH215.mkv.part02.rar
    http://uploaded.net/file/o0wrois5/214587KSH215.mkv.part01.rar
    http://uploaded.net/file/4c48yung/214587KSH215.mkv.part03.rar
    http://uploaded.net/file/uwyv3a23/214587KSH215.mkv.part07.rar
    http://uploaded.net/file/ka1as7ql/214587KSH215.mkv.part04.rar
    http://uploaded.net/file/6gj2w0ao/214587KSH215.mkv.part08.rar
    http://uploaded.net/file/ted6pskb/214587KSH215.mkv.part05.rar
    http://uploaded.net/file/6ke4fqq3/214587KSH215.mkv.part09.rar

 

 

Posting Permissions

  • You may not post new threads
  • You may not post replies
  • You may not post attachments
  • You may not edit your posts
  •