Results 1 to 1 of 1
  1. #1
    dR Rockers www.desirulez.net
    Join Date
    Aug 2011
    Posts
    5,859

    Cool 1920 Evil Returns (2012)(NEW SORCE) - 834MB - 1CDRip - PDVD - XviD - manipagal

    Follow us on Social Media














    MOVIE INFO

    Code:
    [COLOR=#000000]Format                                   : AVI
    Format/Info                              : Audio Video Interleave
    File size                                : 835 MiB
    Duration                                 : 2h 0mn
    Overall bit rate                         : 966 Kbps
    Writing application                      : Lavf52.47.0
    
    Video
    ID                                       : 0
    Format                                   : MPEG-4 Visual
    Format profile                           : [email protected]
    Format settings, BVOP                    : No
    Format settings, QPel                    : No
    Format settings, GMC                     : No warppoints
    Format settings, Matrix                  : Default (H.263)
    Codec ID                                 : FMP4
    Duration                                 : 2h 0mn
    Bit rate                                 : 827 Kbps
    Width                                    : 592 pixels
    Height                                   : 240 pixels
    Display aspect ratio                     : 2.467
    Frame rate                               : 25.000 fps
    Color space                              : YUV
    Chroma subsampling                       : 4:2:0
    Bit depth                                : 8 bits
    Scan type                                : Progressive
    Compression mode                         : Lossy
    Bits/(Pixel*Frame)                       : 0.233
    Stream size                              : 715 MiB (86%)
    Writing library                          : ZJMedia MPEG Encoder
    
    Audio
    ID                                       : 1
    Format                                   : AC-3
    Format/Info                              : Audio Coding 3
    Mode extension                           : CM (complete main)
    Format settings, Endianness              : Big
    Codec ID                                 : 2000
    Duration                                 : 2h 0mn
    Bit rate mode                            : Constant
    Bit rate                                 : 128 Kbps
    Channel(s)                               : 2 channels
    Channel positions                        : Front: L R
    Sampling rate                            : 48.0 KHz
    Bit depth                                : 16 bits
    Compression mode                         : Lossy
    Stream size                              : 111 MiB (13%)
    Alignment                                : Aligned on interleaves
    Interleave, duration                     : 32 ms (0.80 video frame)
    Interleave, preload duration             : 21 ms
    SCREEN SHORT



















    FAST ON NET



    SINGLE DIRECT FAST LINKS

    Code:
    http://extabit.com/file/2dubskuc75twt/NEW SORCE 1920 Evil Returns 1 CD PDVD  RIP.avi

    Code:
    http://ryushare.com/3134234b09ab/NEW_SORCE_1920_Evil_Returns_1_CD_PDVD__RIP.avi

 

 

Posting Permissions

  • You may not post new threads
  • You may not post replies
  • You may not post attachments
  • You may not edit your posts
  •