Results 1 to 1 of 1
  1. #1
    Hot Member www.desirulez.net
    Join Date
    Feb 2011
    Location
    Bulletproof IP
    Posts
    1,189

    Default Jab Tak Hai Jaan (2012) PDVD Rip XviD AC3 850MB Team ExD

    Follow us on Social Media





    Jab Tak Hai Jaan (2012)
    PDVD Rip XviD AC3 850MB Team ExD




    ..::: File Info :::..

    Format : AVI
    Format/Info : Audio Video Interleave
    File size : 854 MiB
    Duration : 2h 35mn
    Overall bit rate : 769 Kbps

    Video
    ID : 0
    Format : MPEG-4 Visual
    Format profile : Advanced [email protected]
    Format settings, BVOP : 2
    Format settings, QPel : Yes
    Format settings, GMC : No warppoints
    Format settings, Matrix : Default (H.263)
    Codec ID : XVID
    Codec ID/Hint : XviD
    Duration : 2h 35mn
    Bit rate : 698 Kbps
    Width : 648 pixels
    Height : 300 pixels
    Display aspect ratio : 2.2:1
    Frame rate : 23.976 fps
    Color space : YUV
    Chroma subsampling : 4:2:0
    Bit depth : 8 bits
    Scan type : Progressive
    Compression mode : Lossy
    Bits/(Pixel*Frame) : 0.150
    Stream size : 775 MiB (91%)
    Writing library : XviD 1.2.1 (UTC 2008-12-04)

    Audio
    ID : 1
    Format : AC-3
    Format/Info : Audio Coding 3
    Mode extension : CM (complete main)
    Format settings, Endianness : Big
    Codec ID : 2000
    Duration : 2h 35mn
    Bit rate mode : Constant
    Bit rate : 64.0 Kbps
    Channel(s) : 2 channels
    Channel positions : Front: L R
    Sampling rate : 48.0 KHz
    Bit depth : 16 bits
    Compression mode : Lossy
    Stream size : 71.1 MiB (8%)
    Alignment : Aligned on interleaves
    Interleave, duration : 64 ms (1.53 video frames)
    Interleave, preload duration : 192 ms
    Title : VTS_01_1 T80 2_0ch 192Kbps DELAY 0ms_new

    ..::: Screenshots :::..














    *Note*

    1) Rip done at server all ss taken remotely

    2) Quality is much better than ss.


    All Credits Goes To John F. Nash @ Team ExD (Thanks)

    Size: 854.11 MB

    Code:
    http://turbobit.net/4ajrb8elk1i0/JTH-Jaan-PDVDRip-XviD-AC3-850MB-ExD.avi.html
    or
    http://rapidgator.net/file/59189646/JTH-Jaan-PDVDRip-XviD-AC3-850MB-ExD.avi.html

 

 

Posting Permissions

  • You may not post new threads
  • You may not post replies
  • You may not post attachments
  • You may not edit your posts
  •