Results 1 to 4 of 4
  1. #1
    dR Rockers www.desirulez.net
    Join Date
    Aug 2011
    Posts
    5,859

    Cool Jab Tak Hai Jaan (2012) - 480p - PreDVDRip - 1GB - X264 - Team ExD

    Follow us on Social Media













    Code:
    Format : Matroska
    File size : 1 021 MiB
    Duration : 2h 35mn
    Overall bit rate : 919 Kbps
    Encoded date : UTC 2012-11-21 07:30:26
    Writing application : mkvmerge v5.6.0 ('Kenya Kane') built on May 27 2012 16:44:04
    Writing library : libebml v1.2.3 + libmatroska v1.3.0
    
    Video
    ID : 1
    Format : AVC
    Format/Info : Advanced Video Codec
    Format profile : [email protected]
    Format settings, CABAC : Yes
    Format settings, ReFrames : 4 frames
    Muxing mode : Header stripping
    Codec ID : V_MPEG4/ISO/AVC
    Duration : 2h 35mn
    Bit rate : 790 Kbps
    Width : 720 pixels
    Height : 320 pixels
    Display aspect ratio : 2.25:1
    Frame rate : 23.976 fps
    Color space : YUV
    Chroma subsampling : 4:2:0
    Bit depth : 8 bits
    Scan type : Progressive
    Bits/(Pixel*Frame) : 0.143
    Stream size : 858 MiB (84%)
    Writing library : x264 core 125 r2200 999b753
    
    Audio
    ID : 2
    Format : MPEG Audio
    Format version : Version 1
    Format profile : Layer 3
    Mode : Joint stereo
    Mode extension : MS Stereo
    Muxing mode : Header stripping
    Codec ID : A_MPEG/L3
    Codec ID/Hint : MP3
    Duration : 2h 35mn
    Bit rate mode : Constant
    Bit rate : 128 Kbps
    Channel(s) : 2 channels
    Sampling rate : 48.0 KHz
    Compression mode : Lossy
    Stream size : 142 MiB (14%)
    Writing library : LAME3.97
    
    
    Ripper    -=Rangeela=-
    Source    DVDScr by -=Tharki=-
    Subtitle    None
    Runtime    2hr 35 mins 13 secs



    *Screenshots*















    ***Thanks Bolne ka Bhailog***



    SINGLE DIRECT FAST LINKS


    Code:
    http://extabit.com/file/2dubsn62hgn8o/Jab Tak Hai Jaan (2012) 1GB x264 {Team ExD}.mkv

    Code:
    http://ryushare.com/419316e4d91b/Jab_Tak_Hai_Jaan_(2012)_1GB_x264_{Team_ExD}.mkv

  2. #2
    New Arrivals
    Join Date
    Aug 2011
    Posts
    7

    Default

    put sm resumeable links

  3. #3
    dR Force!!! www.desirulez.net
    Join Date
    Sep 2011
    Location
    La la la Island
    Posts
    8,728

    Default

    Quote Originally Posted by kis0 View Post
    put sm resumeable links
    You can resume a download from any host if you use Internet Download Manager

    Here is the process




    It's Clobberin Time

  4. #4
    New Arrivals
    Join Date
    Aug 2011
    Posts
    7

    Default

    Quote Originally Posted by insideout View Post
    You can resume a download from any host if you use Internet Download Manager

    Here is the process

    youtub allows you to resume but extabit.com & ryushare.com dnt allow resume even though if u r using Idm.....

 

 

Posting Permissions

  • You may not post new threads
  • You may not post replies
  • You may not post attachments
  • You may not edit your posts
  •