Results 1 to 1 of 1
  1. #1
    dR Rockers www.desirulez.net
    Join Date
    Jun 2011
    Posts
    2,793

    Thumbs up Aiven Raula Pai Gaya (2012) DVDRip - 1CD - XviD - [Exclusive By AnMoL] avi 700mb

    Follow us on Social Media










    DVD9 : My Collection
    Ripper : AnMoL
    Format : AVI
    Format/Info : Audio Video Interleave
    File size : 695 MiB
    Duration : 2h 36mn
    Overall bit rate : 620 Kbps

    Video
    Codec ID : XVID
    Codec ID/Hint : XviD
    Duration : 2h 36mn
    Bit rate : 531 Kbps
    Width : 640 pixels
    Height : 288 pixels
    Frame rate : 23.976 fps
    Color space : YUV
    Chroma subsampling : 4:2:0
    Bit depth : 8 bits
    Scan type : Progressive
    Compression mode : Lossy
    Stream size : 595 MiB (86%)

    Audio
    Format : MPEG Audio
    Format version : Version 1
    Format profile : Layer 3
    Mode : Joint stereo
    Codec ID/Hint : MP3
    Duration : 2h 36mn
    Bit rate mode : Constant
    Bit rate : 80.0 Kbps
    Channel(s) : 2 channels
    Sampling rate : 32.0 KHz
    Compression mode : Lossy
    Stream size : 89.6 MiB (13%)
    Audio : Punjabi











    Code:
    http://www.sendspace.com/file/v5c3co

    (Resume Supported for Free Users)

    Code:
    http://www.queenshare.com/derbl1n5c1wu



 

 

Posting Permissions

  • You may not post new threads
  • You may not post replies
  • You may not post attachments
  • You may not edit your posts
  •